Ссылка на приватное зеркало нашего сайта всего за 1$. Внимание количество ограничено!!!

2 сезон

iTunes

1 сезон

1

2 сезон

2 сезон

iTunes

1 сезон

RePack

30

Ultimate

ВАЖНО

ИГРА 18+

pack

RePack

MK11
pack

Забери бонус

RePack

jed

!!Акция!!

Alien_Rage

RePack

fifa19

RePack

Assassins Creed: Odyssey

RePack

NEED FOR SPEED™ PAYBACK

4 сезон

9 сезон

Бесстыжие 9 сезон

Все сериалы

все сериалы на PB.wtf

RePack

FAR CRY 5
  

Побег из тюрьмы Даннемора / Escape at Dannemora / Сезон: 1 / Серии: 1-7 из 7 (Бен Стиллер) [2018, драма, WEB-DL 1080p] MVO [BaibaKo] pb.wtf

Побег из тюрьмы Даннемора через торрент pb.wtf

Размер: 30.7 GB | Добавлен: 1 год 10 мес. назад | Торрент скачан:25 раз
Скачать  

02-01-2019 20:20 Побег из тюрьмы Даннемора Скачать торрент  

Побег из тюрьмы Даннемора / Escape at Dannemora

Год выпуска: 2018
Страна: США
Жанр: драма
Продолжительность: ~ 00:58:00
Перевод: Профессиональный (многоголосый закадровый) |
Субтитры: отсутствуют

Режиссёр: Бен Стиллер

rating

В ролях:

Бенисио Дель Торо, Патриция Аркетт, Пол Дано, Бонни Хант, Эрик Ланж, Дэвид Морс

Описание:

В центре сюжета – двое заключённых, что находятся в тюрьме без возможности в скором времени оказаться на свободе. Ричарду сорок семь лет, он был осуждён за похищение и убийство, и теперь вынужден находиться за решёткой двадцать пять лет. Его сокамерник – Дэвид, убил полицейского, за что получил пожизненный срок. Мужчины решили объединиться, чтобы осуществить побег и вырваться на свободу. Они заполучили инструменты, с помощью которых им удалось сделать отверстие в стене тюремной камеры. Герои долго готовились к побегу, поэтому продумали всё особо тщательно.

Качество: WEB-DL 1080p
Формат: MKV

Видео: AVC High@L4, 9,1 Мбит/сек, 1920x1080 (1.778), 23,976 (24000/1001) кадра/сек
Аудио#1 ru: AC3, 640 Кбит/сек, 6 каналов, 48,0 КГц
Аудио#2 en: AC3, 640 Кбит/сек, 6 каналов, 48,0 КГц

Общее
Уникальный идентификатор : 332854428140735000859707328933778047649 (0xFA696E57D6B8E91D7E303C0CB8BE42A1)
Полное имя : D:\Escape At Dannemora.s01.HD1080p.WEB-DL.Rus.Eng.BaibaKo.tv\Escape At Dannemora.s01e01.HD1080p.WEB-DL.Rus.Eng.BaibaKo.tv.mkv
Формат : Matroska
Версия формата : Version 4 / Version 2
Размер файла : 4,80 Гбайт
Продолжительность : 1 ч. 4 м.
Общий поток : 10,7 Мбит/сек
Дата кодирования : UTC 2018-11-19 17:01:00
Программа кодирования : mkvmerge v27.0.0 ('Metropolis') 32-bit
Библиотека кодирования : libebml v1.3.6 + libmatroska v1.4.9

Видео
Идентификатор : 1
Формат : AVC
Формат/Информация : Advanced Video Codec
Профиль формата : High@L4
Параметр CABAC формата : Да
Параметр RefFrames формата : 4 кадра
Идентификатор кодека : V_MPEG4/ISO/AVC
Продолжительность : 1 ч. 4 м.
Битрейт : 9283 Кбит/сек
Ширина : 1920 пикселей
Высота : 1080 пикселей
Соотношение сторон : 16:9
Режим частоты кадров : Постоянный
Частота кадров : 23,976 (24000/1001) кадра/сек
Цветовое пространство : YUV
Субдискретизация насыщенности : 4:2:0
Битовая глубина : 8 бит
Тип развёртки : Прогрессивная
Бит/(Пиксели*Кадры) : 0.185
Размер потока : 4,13 Гбайт (86%)
Библиотека кодирования : x264 core 152 r2851 ba24899
Настройки программы : cabac=1 / ref=3 / deblock=1:0:0 / analyse=0x3:0x113 / me=hex / subme=7 / psy=1 / psy_rd=1.00:0.00 / mixed_ref=1 / me_range=16 / chroma_me=1 / trellis=1 / 8x8dct=1 / cqm=0 / deadzone=21,11 / fast_pskip=1 / chroma_qp_offset=-2 / threads=30 / lookahead_threads=5 / sliced_threads=0 / nr=0 / decimate=1 / interlaced=0 / bluray_compat=0 / constrained_intra=0 / bframes=3 / b_pyramid=2 / b_adapt=1 / b_bias=0 / direct=1 / weightb=1 / open_gop=0 / weightp=2 / keyint=240 / keyint_min=23 / scenecut=40 / intra_refresh=0 / rc_lookahead=40 / rc=crf / mbtree=1 / crf=18.0 / qcomp=0.60 / qpmin=0 / qpmax=69 / qpstep=4 / ip_ratio=1.40 / aq=1:1.00
Default : Нет
Forced : Нет

Аудио #1
Идентификатор : 2
Формат : AC-3
Формат/Информация : Audio Coding 3
Расширение режима : CM (complete main)
Параметр Endianness формата : Big
Идентификатор кодека : A_AC3
Продолжительность : 1 ч. 4 м.
Вид битрейта : Постоянный
Битрейт : 640 Кбит/сек
Каналы : 6 каналов
Расположение каналов : Front: L C R, Side: L R, LFE
Частота : 48,0 КГц
Частота кадров : 31,250 кадров/сек (1536 spf)
Метод сжатия : С потерями
Размер потока : 295 Мбайт (6%)
Язык : Russian
Default : Да
Forced : Нет

Аудио #2
Идентификатор : 3
Формат : AC-3
Формат/Информация : Audio Coding 3
Расширение режима : CM (complete main)
Параметр Endianness формата : Big
Идентификатор кодека : A_AC3
Продолжительность : 1 ч. 4 м.
Вид битрейта : Постоянный
Битрейт : 640 Кбит/сек
Каналы : 6 каналов
Расположение каналов : Front: L C R, Side: L R, LFE
Частота : 48,0 КГц
Частота кадров : 31,250 кадров/сек (1536 spf)
Метод сжатия : С потерями
Размер потока : 295 Мбайт (6%)
Язык : English
Default : Нет
Forced : Нет

pb.wtf



Скачать Побег из тюрьмы Даннемора через торрент https://a.radikal.ru/a28/1901/86/acf37e23f2d5.jpg Скачать фильм Побег из тюрьмы Даннемора через торрент бесплантно в хорошем качестве Описание: В центре сюжета – двое заключённых, что находятся в тюрьме без возможности в скором времени оказаться на свободе. Ричарду сорок ... 9 10 3
Info! Золотая раздача, скачанное не засчитывается.
Торрент: Зарегистрирован [2019-01-02 20:20] · скачан: 25 раз
Статус: √ проверено
Размер: 30.7 GB
Как cкачать? Как скачать Побег из тюрьмы Даннемора через торрент | qTorrent

% Раздел Тема Автор DL S | L
Зарубежные сериалы [ 29.17 GB ] Побег из тюрьмы Даннемора / Escape at Dannemora / Сезон: 1 / Серии: 1-7 из 7 [2018 биографический WEB-DL 1080p] MVO [SDI Media / Amedia] bober100 Скачать
1 | 0
Зарубежные сериалы [ 9.57 GB ] Побег из тюрьмы Даннемора / Escape at Dannemora / Сезон: 1 / Серии: 1-7 из 7 [2018 биографический WEB-DL 720p] MVO [SDI Media / Amedia] bober100 Скачать
3 | 0
Зарубежные сериалы [ 8.91 GB ] Побег из тюрьмы Даннемора / Escape at Dannemora / Сезон: 1 / Серии: 1-7 из 7 [2018 WEBRip 720p] MVO [Baibako] bober100 Скачать
1 | 0
Зарубежные сериалы [ 30.08 GB ] Побег из тюрьмы Даннемора / Escape at Dannemora / Сезон: 1 / Серии: 1-7 из 7 [2018 WEB-DL 1080p] MVO [LostFilm] bober100 Скачать
1 | 0
Зарубежные сериалы [ 8.91 GB ] Побег из тюрьмы Даннемора / Escape at Dannemora / Сезон: 1 / Серии: 1-7 из 7 [2018 WEB-DL 720p] MVO [Jaskier] bober100 Скачать
2 | 0
Зарубежные сериалы [ 5.13 GB ] Побег из тюрьмы Даннемора / Escape at Dannemora / Сезон: 1 / Серии: 1-7 из 7 [2018 WEB-DLRip] MVO [Jaskier] bober100 Скачать
1 | 0
Зарубежные сериалы [ 5.56 GB ] Побег из тюрьмы Даннемора / Escape at Dannemora / Сезон: 1 / Серии: 1-7 из 7 [2018 WEBRip] MVO [NewStudio] bober100 Скачать
3 | 0

28-11-2019 20:33  

Отключить всю рекламу на сайте

    Дорогой пользователь! Огромная просьба, поблагодарите релизера, оцените раздачу и оставьте свои комментарий, если Вы скачали Побег из тюрьмы Даннемора через торрент бесплатно! Внесите свою лепту в развитие PiratBit!
    Комментировать посты могут только пользователи прошедшие не сложную регистрацию
    Показать сообщения:    

    Побег из тюрьмы Даннемора через торрент
    Скачать бесплатно Побег из тюрьмы Даннемора
    Побег из тюрьмы Даннемора скачать торрент
    Побег из тюрьмы Даннемора смотреть онлайн
    Cкачать фильм Побег из тюрьмы Даннемора бесплатно
    Побег из тюрьмы Даннемора скачать торрент в хорошем качестве
    Побег из тюрьмы Даннемора смотреть онлайн бесплатно в хорошем качестве


    Вы не можете начинать темы
    Вы не можете отвечать на сообщения
    Вы не можете редактировать свои сообщения
    Вы не можете удалять свои сообщения
    Вы не можете голосовать в опросах
    Вы не можете прикреплять файлы к сообщениям
    Вы можете скачивать файлы