Ссылка на приватное зеркало нашего сайта всего за 1$. Внимание количество ограничено!!!

2 сезон

iTunes

1 сезон

1

iTunes

iTunes

iTunes

1 сезон

RePack

30

ИГРА 18+

pack

ВАЖНО

!!Акция!!

Alien_RageХит недели

RePack

MK11
pack

Забери бонус

RePack

jed

!!Акция!!

Alien_Rage

RePack

fifa19

RePack

Assassins Creed: Odyssey

RePack

NEED FOR SPEED™ PAYBACK

4 сезон

9 сезон

Бесстыжие 9 сезон

Все сериалы

все сериалы на PB.wtf

RePack

FAR CRY 5
  

Гаражный папа / Серии: 1-2 из 2 (Александр Новиков-Янгинов, Станислав Либин) [2018, комедия, SATRip] pb.wtf

Гаражный папа через торрент pb.wtf

Размер: 1.29 GB | Добавлен: 1 год 9 мес. назад | Торрент скачан:62 раза
Скачать  

02-01-2019 20:56 Гаражный папа Скачать торрент  

Гаражный папаГод выпуска: 2018
Страна: Россия
Жанр: комедия
Продолжительность: ~00:48:00
Перевод: Не требуется
Субтитры: отсутствуют

Режиссер: Александр Новиков-Янгинов, Станислав Либин

В ролях:

Антон Эльдаров, Михаил Тарабукин, Фёдор Лавров, Андрей Аверьянов, Светлана Колпакова, Александра Велескевич, Надежда Азоркина

Описание:

Кеша, готовясь к первой встрече с невестой, становится жертвой нелепых обстоятельств: его лучший друг Аркадий, изменяющий своей жене, приглашает новую пассию Марину на свидание в гараж. По дороге он проваливается в яму - в это время в городе ведутся ремонтные работы. Спасти ситуацию может только Кеша, но он попадает в засаду, организованную милицией для поимки вора по прозвищу Гаражный Папа. Помочь Кеше должен Аркадий: перед ним встает сложный выбор - спасти лучшего друга и признаться в измене или пустить ситуацию на самотек...

Качество: SATRip
Формат: AVI

Видео: XviD, 1800 Кбит/с, 720x400
Аудио: MP3, 2 ch, 128 Кбит/с
скриншот  скриншот  скриншот  скриншот  

Общее
Полное имя : D:\Garazhnyj.papa.SATRip\Garazhnyj.papa.01.SATRip.avi
Формат : AVI
Формат/Информация : Audio Video Interleave
Размер файла : 669 Мбайт
Продолжительность : 48 м. 12 с.
Общий поток : 1942 Кбит/сек

Видео
Идентификатор : 0
Формат : MPEG-4 Visual
Профиль формата : Advanced Simple@L5
Параметр BVOP формата : 2
Параметр QPel формата : Нет
Параметр GMC формата : Без точки перехода
Параметр матрицы формата : Default (H.263)
Идентификатор кодека : XVID
Идентификатор кодека/Подсказка : XviD
Продолжительность : 48 м. 12 с.
Битрейт : 1800 Кбит/сек
Ширина : 720 пикселей
Высота : 400 пикселей
Соотношение сторон : 16:9
Частота кадров : 25,000 кадров/сек
Цветовое пространство : YUV
Субдискретизация насыщенности : 4:2:0
Битовая глубина : 8 бит
Тип развёртки : Прогрессивная
Метод сжатия : С потерями
Бит/(Пиксели*Кадры) : 0.240
Размер потока : 596 Мбайт (89%)
Библиотека кодирования : XviD 1.2.1 (UTC 2008-12-04)

Аудио
Идентификатор : 1
Формат : MPEG Audio
Версия формата : Version 1
Профиль формата : Layer 3
Режим : Joint stereo
Расширение режима : MS Stereo
Идентификатор кодека : 55
Идентификатор кодека/Подсказка : MP3
Продолжительность : 48 м. 12 с.
Вид битрейта : Постоянный
Битрейт : 128 Кбит/сек
Каналы : 2 канала
Частота : 48,0 КГц
Метод сжатия : С потерями
Размер потока : 44,1 Мбайт (7%)
Выравнивание : Соединение по промежуткам
Библиотека кодирования : LAME3.99r
Настройки программы : -m j -V 4 -q 9 -lowpass 17 -b 128

pb.wtf



Скачать Гаражный папа через торрент https://i107.fastpic.ru/big/2019/0102/73/865cf36ab55d2bfb2d63bd7839a46173.jpg Скачать фильм Гаражный папа через торрент бесплантно в хорошем качестве Описание: Кеша, готовясь к первой встрече с невестой, становится жертвой нелепых обстоятельств: его лучший друг Аркадий, изменяющий своей ... 10 10 5
Торрент: Зарегистрирован [2019-01-02 20:56] · скачан: 62 раз
Статус: √ проверено
Размер: 1.29 GB
Как cкачать? Как скачать Гаражный папа через торрент | qTorrent

% Раздел Тема Автор DL S | L
Наши сериалы [ 1.09 GB ] Гаражный папа / Серии: 1-2 из 2 [2018 WEBRip] bober100 Скачать
1 | 0
Наши сериалы [ 4.18 GB ] Гаражный папа / Серии: 1-2 из 2 [2018 WEB-DL 1080p] bober100 Скачать
1 | 0

28-11-2019 20:33  

Отключить всю рекламу на сайте

03-01-2019 11:30 Гаражный папа Скачать торрент  

...ну, тут в принципе, и по скринам все ясно и понятно... ...вот и посмотрел... pb.wtf



    Дорогой пользователь! Огромная просьба, поблагодарите релизера, оцените раздачу и оставьте свои комментарий, если Вы скачали Гаражный папа через торрент бесплатно! Внесите свою лепту в развитие PiratBit!
    Комментировать посты могут только пользователи прошедшие не сложную регистрацию
    Показать сообщения:    

    Гаражный папа через торрент
    Скачать бесплатно Гаражный папа
    Гаражный папа скачать торрент
    Гаражный папа смотреть онлайн
    Cкачать фильм Гаражный папа бесплатно
    Гаражный папа скачать торрент в хорошем качестве
    Гаражный папа смотреть онлайн бесплатно в хорошем качестве


    Вы не можете начинать темы
    Вы не можете отвечать на сообщения
    Вы не можете редактировать свои сообщения
    Вы не можете удалять свои сообщения
    Вы не можете голосовать в опросах
    Вы не можете прикреплять файлы к сообщениям
    Вы можете скачивать файлы