Ссылка на приватное зеркало нашего сайта всего за 1$. Внимание количество ограничено!!!

2 сезон

iTunes

1 сезон

1

iTunes

iTunes

iTunes

1 сезон

RePack

30

ИГРА 18+

pack

ВАЖНО

!!Акция!!

Alien_RageХит недели

RePack

MK11
pack

Забери бонус

RePack

jed

!!Акция!!

Alien_Rage

RePack

fifa19

RePack

Assassins Creed: Odyssey

RePack

NEED FOR SPEED™ PAYBACK

4 сезон

9 сезон

Бесстыжие 9 сезон

Все сериалы

все сериалы на PB.wtf

RePack

FAR CRY 5
  

Гаражный папа / Серии: 1-2 из 2 (Александр Новиков-Янгинов, Станислав Либин) [2018, комедия, WEB-DL 1080p] pb.wtf

Гаражный папа через торрент pb.wtf

Размер: 4.18 GB | Добавлен: 1 год 9 мес. назад | Торрент скачан:35 раз
Скачать  

02-01-2019 21:04 Гаражный папа Скачать торрент  

Гаражный папаГод выпуска: 2018
Страна: Россия
Жанр: комедия
Продолжительность: ~00:48:00
Перевод: Не требуется
Субтитры: отсутствуют

Режиссер: Александр Новиков-Янгинов, Станислав Либин



В ролях:

Антон Эльдаров, Михаил Тарабукин, Фёдор Лавров, Андрей Аверьянов, Светлана Колпакова, Александра Велескевич, Надежда Азоркина

Описание:

Кеша, готовясь к первой встрече с невестой, становится жертвой нелепых обстоятельств: его лучший друг Аркадий, изменяющий своей жене, приглашает новую пассию Марину на свидание в гараж. По дороге он проваливается в яму - в это время в городе ведутся ремонтные работы. Спасти ситуацию может только Кеша, но он попадает в засаду, организованную милицией для поимки вора по прозвищу Гаражный Папа. Помочь Кеше должен Аркадий: перед ним встает сложный выбор - спасти лучшего друга и признаться в измене или пустить ситуацию на самотек...

Качество: WEB-DL 1080p
Формат: MKV

Видео: 1920х1080 (16:9), 25 fps, AVC MPEG-4 (x264), High@L4.0 ~ 6000 kbps avg, 0.116 bit/pixel
Аудио: 48 kHz, AC3, 2 ch, 192 kbps avg
скриншот  скриншот  скриншот  скриншот  

Общее
Уникальный идентификатор : 219905793572261323296456091633507896633 (0xA57050B61796C6FFA4C43753CCC40D39)
Полное имя : D:\Garazhnyj.papa.2018.WEB-DL.(1080p).Nikolspup\Garazhnyj.papa.(01.seriya.iz.02).2018.WEB-DL.(1080p).Nikolspup.mkv
Формат : Matroska
Версия формата : Version 4 / Version 2
Размер файла : 2,11 Гбайт
Продолжительность : 48 м. 52 с.
Режим общего битрейта : Постоянный
Общий поток : 6172 Кбит/сек
Дата кодирования : UTC 2019-01-02 19:19:12
Программа кодирования : mkvmerge v7.8.0 ('River Man') 32bit built on Mar 27 2015 16:18:02
Библиотека кодирования : libebml v1.3.1 + libmatroska v1.4.2

Видео
Идентификатор : 1
Формат : AVC
Формат/Информация : Advanced Video Codec
Профиль формата : High@L4.1
Параметр CABAC формата : Нет
Параметр RefFrames формата : 2 кадра
Идентификатор кодека : V_MPEG4/ISO/AVC
Продолжительность : 48 м. 53 с.
Вид битрейта : Постоянный
Битрейт : 6000 Кбит/сек
Ширина : 1920 пикселей
Высота : 1080 пикселей
Соотношение сторон : 16:9
Режим частоты кадров : Постоянный
Частота кадров : 25,000 кадров/сек
Стандарт вещания : PAL
Цветовое пространство : YUV
Субдискретизация насыщенности : 4:2:0
Битовая глубина : 8 бит
Тип развёртки : Прогрессивная
Бит/(Пиксели*Кадры) : 0.116
Размер потока : 2,00 Гбайт (95%)
Default : Да
Forced : Нет
Цветовой диапазон : Limited
Основные цвета : BT.709
Характеристики трансфера : BT.709
Коэффициенты матрицы : BT.709

Аудио
Идентификатор : 2
Формат : AC-3
Формат/Информация : Audio Coding 3
Расширение режима : CM (complete main)
Параметр Endianness формата : Big
Идентификатор кодека : A_AC3
Продолжительность : 48 м. 52 с.
Вид битрейта : Постоянный
Битрейт : 192 Кбит/сек
Каналы : 2 канала
Расположение каналов : Front: L R
Частота : 48,0 КГц
Частота кадров : 31,250 кадров/сек (1536 spf)
Метод сжатия : С потерями
Размер потока : 67,1 Мбайт (3%)
Язык : Russian
Default : Да
Forced : Нет

pb.wtf



Скачать Гаражный папа через торрент https://d.radikal.ru/d00/1901/ce/c2d2c12f3e1b.jpg Скачать фильм Гаражный папа через торрент бесплантно в хорошем качестве Описание: Кеша, готовясь к первой встрече с невестой, становится жертвой нелепых обстоятельств: его лучший друг Аркадий, изменяющий своей ... 10 10 3
Торрент: Зарегистрирован [2019-01-02 21:04] · скачан: 35 раз
Статус: √ проверено
Размер: 4.18 GB
Как cкачать? Как скачать Гаражный папа через торрент | qTorrent

% Раздел Тема Автор DL S | L
Наши сериалы [ 1.29 GB ] Гаражный папа / Серии: 1-2 из 2 [2018 SATRip] bober100 Скачать
1 | 0
Наши сериалы [ 1.09 GB ] Гаражный папа / Серии: 1-2 из 2 [2018 WEBRip] bober100 Скачать
1 | 0

28-11-2019 20:33  

Отключить всю рекламу на сайте

    Дорогой пользователь! Огромная просьба, поблагодарите релизера, оцените раздачу и оставьте свои комментарий, если Вы скачали Гаражный папа через торрент бесплатно! Внесите свою лепту в развитие PiratBit!
    Комментировать посты могут только пользователи прошедшие не сложную регистрацию
    Показать сообщения:    

    Гаражный папа через торрент
    Скачать бесплатно Гаражный папа
    Гаражный папа скачать торрент
    Гаражный папа смотреть онлайн
    Cкачать фильм Гаражный папа бесплатно
    Гаражный папа скачать торрент в хорошем качестве
    Гаражный папа смотреть онлайн бесплатно в хорошем качестве


    Вы не можете начинать темы
    Вы не можете отвечать на сообщения
    Вы не можете редактировать свои сообщения
    Вы не можете удалять свои сообщения
    Вы не можете голосовать в опросах
    Вы не можете прикреплять файлы к сообщениям
    Вы можете скачивать файлы