новый адрес
Ссылка на приватное зеркало всего за 1$. Внимание количество ограничено!!!

iTunes

1+1

iTunes

мы

iTunes

1

iTunes

Чернобыль

iTunes

Ральф против интернета

Лицензия

ПШазам

Лицензия

Оно 2

Лицензия

30
pack

Вам бонус

ВАЖНО

!!Акция!!

Alien_RageХит недели

RePack

Resident Evil 21

ИГРА 18+

pack

RePack

jed

!!Акция!!

Alien_Rage

RePack

fifa19

RePack

Assassins Creed: Odyssey

RePack

NEED FOR SPEED™ PAYBACK

3 сезон

9 сезон

Бесстыжие 9 сезон

Все сериалы

все сериалы на PB.wtf

RePack

FAR CRY 5
Ребята, катастрофически не хватает 1900р. для оплаты серверов за Октябрь (всвязи с блокировками трафик упал в 3 раза), 1-2р., выручайте.
  

Ограбление: Код 211 / 211 (Йорк Шеклтон) [2018, боевик, драма, история, BDRip-AVC] DUB [iTunes] - ExkinoRay pb.wtf

Ограбление: Код 211 через торрент pb.wtf

Раздают: 1 [ 0 KB/s ]
Размер: 2.18 GB | Добавлен: 11 мес. назад | Торрент скачан:583 раза
Скачать  

02-01-2019 22:01 Ограбление: Код 211 Скачать торрент  

Информация о фильме
Название: Ограбление: Код 211
Оригинальное название: 211
Год выхода: 2018
Жанр: боевик, драма, история
Режиссер: Йорк Шеклтон
В ролях: Николас Кейдж, Софи Скелтон, Майкл Рейни мл., Дуэйн Камерон, Уэстон Кейдж, Кори Хардрикт, Ори Феффер, Марк Баснайт, Аманда Серни, Майкл Беллисарио

Описание:
Полицейский код 211 — ограбление банка. Такой сигнал получает офицер Чандлер во время своей смены. Он бросается на место событий, чтобы не позволить преступникам сбежать с добычей.

Страна: США
Продолжительность: 01:27:04
Перевод: Профессиональный (дублированный) iTunes

Кодек: H.264
Качество: BDRip-AVC
Видео: MPEG-4 AVC, 1024x554 (1.85:1), 23.976 fps, ~2750 kbps avg, 0.202 bit/pixel
Звук 1: 48 kHz, AC3 Dolby Digital, 5/1 ch, ~384 kbps avg
Звук 2: 48 kHz, AC3 Dolby Digital, 5/1 ch, ~448 kbps avg
Субтитры: Английские

Без какой-либо рекламы.
General
Unique ID : 238982054229187137448325373727299045238 (0xB3CA44FA17CFE4F79EEF5FAD10878776)
Complete name : D:\211.2018.itunes.BDRip.AVC.ExKinoRay.mkv
Format : Matroska
Format version : Version 2
File size : 2.18 GiB
Duration : 1 h 27 min
Overall bit rate : 3 583 kb/s
Movie name : Код 211 2018 from ExKinoRay
Encoded date : UTC 2019-01-02 21:37:17
Writing application : mkvmerge v5.6.0 ('Kenya Kane') built on May 27 2012 16:44:04
Writing library : libebml v1.2.3 + libmatroska v1.3.0

Video
ID : 1
Format : AVC
Format/Info : Advanced Video Codec
Format profile : High@L4.1
Format settings, CABAC : Yes
Format settings, ReFrames : 12 frames
Codec ID : V_MPEG4/ISO/AVC
Duration : 1 h 27 min
Bit rate : 2 750 kb/s
Width : 1 024 pixels
Height : 554 pixels
Display aspect ratio : 1.85:1
Frame rate mode : Constant
Frame rate : 23.976 (23976/1000) FPS
Color space : YUV
Chroma subsampling : 4:2:0
Bit depth : 8 bits
Scan type : Progressive
Bits/(Pixel*Frame) : 0.202
Stream size : 1.63 GiB (75%)
Title : Enigma
Writing library : x264 core 152 r2851 ba24899
Encoding settings : cabac=1 / ref=12 / deblock=1:-2:-2 / analyse=0x3:0x113 / me=umh / subme=11 / psy=1 / psy_rd=0.97:0.05 / mixed_ref=1 / me_range=32 / chroma_me=1 / trellis=2 / 8x8dct=1 / cqm=0 / deadzone=21,11 / fast_pskip=0 / chroma_qp_offset=-3 / threads=12 / lookahead_threads=3 / sliced_threads=0 / nr=0 / decimate=0 / interlaced=0 / bluray_compat=0 / constrained_intra=0 / bframes=12 / b_pyramid=2 / b_adapt=2 / b_bias=0 / direct=3 / weightb=1 / open_gop=0 / weightp=2 / keyint=240 / keyint_min=23 / scenecut=40 / intra_refresh=0 / rc_lookahead=40 / rc=2pass / mbtree=0 / bitrate=2750 / ratetol=1.0 / qcomp=0.60 / qpmin=0 / qpmax=51 / qpstep=4 / cplxblur=20.0 / qblur=0.5 / vbv_maxrate=50000 / vbv_bufsize=62500 / nal_hrd=none / filler=0 / ip_ratio=1.30 / pb_ratio=1.20 / aq=3:0.90
Language : English
Default : Yes
Forced : No
Color range : Limited
Color primaries : BT.709
Transfer characteristics : BT.709
Matrix coefficients : BT.709

Audio #1
ID : 2
Format : AC-3
Format/Info : Audio Coding 3
Mode extension : CM (complete main)
Format settings, Endianness : Big
Codec ID : A_AC3
Duration : 1 h 27 min
Bit rate mode : Constant
Bit rate : 384 kb/s
Channel(s) : 6 channels
Channel positions : Front: L C R, Side: L R, LFE
Sampling rate : 48.0 kHz
Frame rate : 31.250 FPS (1536 spf)
Compression mode : Lossy
Stream size : 239 MiB (11%)
Title : dub (iTunes)
Language : Russian
Default : Yes
Forced : No

Audio #2
ID : 3
Format : AC-3
Format/Info : Audio Coding 3
Mode extension : CM (complete main)
Format settings, Endianness : Big
Codec ID : A_AC3
Duration : 1 h 27 min
Bit rate mode : Constant
Bit rate : 448 kb/s
Channel(s) : 6 channels
Channel positions : Front: L C R, Side: L R, LFE
Sampling rate : 48.0 kHz
Frame rate : 31.250 FPS (1536 spf)
Compression mode : Lossy
Stream size : 279 MiB (13%)
Language : English
Default : No
Forced : No

Text
ID : 4
Format : UTF-8
Codec ID : S_TEXT/UTF8
Codec ID/Info : UTF-8 Plain Text
Language : English
Default : No
Forced : No

Menu
00:00:00.000 : en:Chapter 01
00:05:50.641 : en:Chapter 02
00:10:14.530 : en:Chapter 03
00:16:36.286 : en:Chapter 04
00:22:31.266 : en:Chapter 05
00:27:17.177 : en:Chapter 06
00:32:44.337 : en:Chapter 07
00:38:47.908 : en:Chapter 08
00:44:38.884 : en:Chapter 09
00:49:44.314 : en:Chapter 10
00:54:29.391 : en:Chapter 11
01:00:31.836 : en:Chapter 12
01:05:32.887 : en:Chapter 13
01:11:29.243 : en:Chapter 14
01:16:34.464 : en:Chapter 15
01:22:27.484 : en:Chapter 16
Релиз от:

Автор релиза: pb.wtf



Скачать Ограбление: Код 211 через торрент http://i104.fastpic.ru/big/2018/0612/d0/476c6879472d29a31124ce79927532d0.jpg Скачать фильм Ограбление: Код 211 через торрент бесплантно в хорошем качестве Описание:Полицейский код 211 — ограбление банка. Такой сигнал получает офицер Чандлер во время своей смены. Он бросается на место событий, ... 9.5 10 8
Info! Золотая раздача, скачанное не засчитывается.
Торрент: Зарегистрирован [2019-01-02 22:01] · скачан: 583 раз
Статус: √ проверено
Размер: 2.18 GB
Как cкачать? Как скачать Ограбление: Код 211 через торрент | qTorrent



Последний раз редактировалось: Enigma2010 (2019-01-04 01:28), всего редактировалось 1 раз
Отключить всю рекламу на сайте

03-01-2019 15:33 Ограбление: Код 211 Скачать торрент  

скрины не работают !pb.wtf



04-01-2019 01:29 Ограбление: Код 211 Скачать торрент  

malder писал(а):

скрины не работают !

Хост накрылся, перезалила на другой.pb.wtf



    Дорогой пользователь! Огромная просьба, поблагодарите релизера, оцените раздачу и оставьте свои комментарий, если Вы скачали Ограбление: Код 211 через торрент бесплатно! Внесите свою лепту в развитие PiratBit!
    Комментировать посты могут только пользователи прошедшие не сложную регистрацию
    Показать сообщения:    

    Ограбление: Код 211 через торрент
    Скачать бесплатно Ограбление: Код 211
    Ограбление: Код 211 скачать торрент
    Ограбление: Код 211 смотреть онлайн
    Cкачать фильм Ограбление: Код 211 бесплатно
    Ограбление: Код 211 скачать торрент в хорошем качестве
    Ограбление: Код 211 смотреть онлайн бесплатно в хорошем качестве


    Вы не можете начинать темы
    Вы не можете отвечать на сообщения
    Вы не можете редактировать свои сообщения
    Вы не можете удалять свои сообщения
    Вы не можете голосовать в опросах
    Вы не можете прикреплять файлы к сообщениям
    Вы можете скачивать файлы