Ссылка на приватное зеркало нашего сайта всего за 1$. Внимание количество ограничено!!!

2 сезон

iTunes

1 сезон

1

iTunes

iTunes

iTunes

1 сезон

RePack

30

ИГРА 18+

pack

ВАЖНО

!!Акция!!

Alien_RageХит недели

RePack

MK11
pack

Забери бонус

RePack

jed

!!Акция!!

Alien_Rage

RePack

fifa19

RePack

Assassins Creed: Odyssey

RePack

NEED FOR SPEED™ PAYBACK

4 сезон

9 сезон

Бесстыжие 9 сезон

Все сериалы

все сериалы на PB.wtf

RePack

FAR CRY 5
  

Гаражный папа / Серии: 1-2 из 2 (Александр Новиков-Янгинов, Станислав Либин) [2018, комедия, WEBRip] pb.wtf

Гаражный папа через торрент pb.wtf

Размер: 1.09 GB | Добавлен: 1 год 9 мес. назад | Торрент скачан:86 раз
Скачать  

02-01-2019 22:28 Гаражный папа Скачать торрент  

Гаражный папаГод выпуска: 2018
Страна: Россия
Жанр: комедия
Продолжительность: ~00:48:00
Перевод: Не требуется
Субтитры: отсутствуют

Режиссер: Александр Новиков-Янгинов, Станислав Либин

В ролях:

Антон Эльдаров, Михаил Тарабукин, Фёдор Лавров, Андрей Аверьянов, Светлана Колпакова, Александра Велескевич, Надежда Азоркина

Описание:

Кеша, готовясь к первой встрече с невестой, становится жертвой нелепых обстоятельств: его лучший друг Аркадий, изменяющий своей жене, приглашает новую пассию Марину на свидание в гараж. По дороге он проваливается в яму - в это время в городе ведутся ремонтные работы. Спасти ситуацию может только Кеша, но он попадает в засаду, организованную милицией для поимки вора по прозвищу Гаражный Папа. Помочь Кеше должен Аркадий: перед ним встает сложный выбор - спасти лучшего друга и признаться в измене или пустить ситуацию на самотек...

Качество: WEBRip
Формат: AVI

Видео: XviD build 73, 720x400 (16:9), 25.000 fps, ~ 1400 Kbps (~ 0.195 bit/pixel)
Аудио: 48.0 kHz, AC3, 2/0 ch, 192 kbps
скриншот  скриншот  скриншот  скриншот  скриншот  

General
Complete name : D:RazdachiGarazhnyj.Papa.2018.WEBRip.GeneralFilmGarazhnyj.Papa.e01.avi
Format : AVI
Format/Info : Audio Video Interleave
File size : 557 MiB
Duration : 48 min 46 s
Overall bit rate : 1 598 kb/s
Writing application : VirtualDubMod 1.5.10.3 | www.virtualdub-fr.org || (build 2550/release)
Writing library : VirtualDubMod build 2550/release

Video
ID : 0
Format : MPEG-4 Visual
Format profile : Advanced Simple@L5
Format settings, BVOP : 1
Format settings, QPel : No
Format settings, GMC : No warppoints
Format settings, Matrix : Custom
Codec ID : XVID
Codec ID/Hint : XviD
Duration : 48 min 46 s
Bit rate : 1 396 kb/s
Width : 720 pixels
Height : 400 pixels
Display aspect ratio : 16:9
Frame rate : 25.000 FPS
Color space : YUV
Chroma subsampling : 4:2:0
Bit depth : 8 bits
Scan type : Progressive
Compression mode : Lossy
Bits/(Pixel*Frame) : 0.194
Stream size : 487 MiB (87%)
Writing library : XviD 73

Audio
ID : 1
Format : AC-3
Format/Info : Audio Coding 3
Format settings, Endianness : Big
Codec ID : 2000
Duration : 48 min 46 s
Bit rate mode : Constant
Bit rate : 192 kb/s
Channel(s) : 2 channels
Channel positions : Front: L R
Sampling rate : 48.0 kHz
Frame rate : 31.250 FPS (1536 SPF)
Bit depth : 16 bits
Compression mode : Lossy
Stream size : 67.0 MiB (12%)
Alignment : Split accross interleaves
Interleave, duration : 40 ms (1.00 video frame)
Interleave, preload duratio : 500 ms
Service kind : Complete Main

pb.wtf



Скачать Гаражный папа через торрент https://d.radikal.ru/d00/1901/ce/c2d2c12f3e1b.jpg Скачать фильм Гаражный папа через торрент бесплантно в хорошем качестве Описание: Кеша, готовясь к первой встрече с невестой, становится жертвой нелепых обстоятельств: его лучший друг Аркадий, изменяющий своей ... 8.4 10 5
Торрент: Зарегистрирован [2019-01-02 22:28] · скачан: 86 раз
Статус: √ проверено
Размер: 1.09 GB
Как cкачать? Как скачать Гаражный папа через торрент | qTorrent

% Раздел Тема Автор DL S | L
Наши сериалы [ 1.29 GB ] Гаражный папа / Серии: 1-2 из 2 [2018 SATRip] bober100 Скачать
1 | 0
Наши сериалы [ 4.18 GB ] Гаражный папа / Серии: 1-2 из 2 [2018 WEB-DL 1080p] bober100 Скачать
1 | 0

28-11-2019 20:33  

Отключить всю рекламу на сайте

    Дорогой пользователь! Огромная просьба, поблагодарите релизера, оцените раздачу и оставьте свои комментарий, если Вы скачали Гаражный папа через торрент бесплатно! Внесите свою лепту в развитие PiratBit!
    Комментировать посты могут только пользователи прошедшие не сложную регистрацию
    Показать сообщения:    

    Гаражный папа через торрент
    Скачать бесплатно Гаражный папа
    Гаражный папа скачать торрент
    Гаражный папа смотреть онлайн
    Cкачать фильм Гаражный папа бесплатно
    Гаражный папа скачать торрент в хорошем качестве
    Гаражный папа смотреть онлайн бесплатно в хорошем качестве


    Вы не можете начинать темы
    Вы не можете отвечать на сообщения
    Вы не можете редактировать свои сообщения
    Вы не можете удалять свои сообщения
    Вы не можете голосовать в опросах
    Вы не можете прикреплять файлы к сообщениям
    Вы можете скачивать файлы