новый адрес пиратбит piratbit
Мега распродажа FORZA HORIZON 4 ULTIMATE+ВСЕ DLC+ОНЛАЙН всего за 499р. 349 руб. (супер цена). Внимание количество ограничено!!!

iTunes

1+1

iTunes

мы

iTunes

1

iTunes

Чернобыль

iTunes

Ральф против интернета

Лицензия

ПШазам

Лицензия

Игра престолов

Лицензия

30
pack

ВАЖНО

!!Акция!!

Alien_RageХит недели

RePack

Resident Evil 21

ИГРА 18+

pack

RePack

Metro:Exodus

!!Акция!!

Alien_Rage

RePack

fifa19

RePack

Assassins Creed: Odyssey

RePack

NEED FOR SPEED™ PAYBACK

3 сезон

9 сезон

Бесстыжие 9 сезон

Все сериалы

все сериалы на PB.wtf

RePack

FAR CRY 5
Ребята, катастрофически не хватает 1900р. для оплаты серверов за Октябрь (всвязи с блокировками трафик упал в 3 раза), 1-2р., выручайте.
  

Праздник (Алексей Красовский) [2019, Комедия, драма, военный, WEBRip-AVC] - ExKinoRay pb.wtf

Праздник через торрент pb.wtf

Раздают: 4 [ 0 KB/s ]
Размер: 1.09 GB | Добавлен: 10 мес. назад | Торрент скачан:829 раз
Скачать  

03-01-2019 03:40 Праздник Скачать торрент  

Информация о фильме
Оригинальное название: Праздник
Год выхода: 2019
Жанр: Комедия, драма, военный, история
Режиссер: Алексей Красовский
В ролях: Ян Цапник, Алёна Бабенко, Павел Табаков, Анфиса Черных, Тимофей Трибунцев, Анастасия Чистякова (II)

Описание:
Блокадный Ленинград. В загородном доме Воскресенских, живущих «на особом положении», собираются шесть человек, и, несмотря на блокаду, они не голодают. У них есть сырая курица, которую некому приготовить. Раньше этим занималась кухарка, но её у Воскресенских накануне забрали — с наружи наступили тяжёлые времена, да и внутри ситуация тоже нелегкая: младший сын Денис, привёл голодную девушку Машу, старшая дочь Лиза — незнакомого мужчину, по имени Виталий за которого она, по её словам, собирается выйти замуж. До Нового 1942 Года остались считанные минуты, а количество проблем растёт как снежный ком.



Страна: Россия
Продолжительность: 01:13:34
Перевод: Не требуется

Формат: MKV
Качество: WEBRip-AVC
Видео: 720x404 (16:9), 23.976 fps, MPEG-4 AVC ~ 1921 kbps avg, 0.275 bit/pixel
Звук: AC3, 2 ch, 192 Кбит/с
General
Unique ID : 182836102368811430064890337985702670512 (0x898CF3D38C41835492ED66AC1C9830B0)
Complete name : D:\Prazdnik.2019.AVC.ExKinoRay.mkv
Format : Matroska
Format version : Version 2
File size : 1.09 GiB
Duration : 1 h 13 min
Overall bit rate : 2 114 kb/s
Movie name : Праздник (2019) from ExKinoRay
Encoded date : UTC 2019-01-03 03:02:26
Writing application : mkvmerge v5.6.0 ('Kenya Kane') built on May 27 2012 16:44:04
Writing library : libebml v1.2.3 + libmatroska v1.3.0

Video
ID : 1
Format : AVC
Format/Info : Advanced Video Codec
Format profile : High@L4.1
Format settings, CABAC : Yes
Format settings, ReFrames : 10 frames
Codec ID : V_MPEG4/ISO/AVC
Duration : 1 h 13 min
Bit rate : 1 921 kb/s
Width : 720 pixels
Height : 404 pixels
Display aspect ratio : 16:9
Frame rate mode : Constant
Frame rate : 23.976 (24000/1001) FPS
Original frame rate : 23.976 (23976/1000) FPS
Color space : YUV
Chroma subsampling : 4:2:0
Bit depth : 8 bits
Scan type : Progressive
Bits/(Pixel*Frame) : 0.275
Stream size : 989 MiB (89%)
Title : Enigma
Writing library : x264 core 152 r2851 ba24899
Encoding settings : cabac=1 / ref=10 / deblock=1:-2:-2 / analyse=0x3:0x113 / me=umh / subme=10 / psy=1 / psy_rd=1.05:0.10 / mixed_ref=1 / me_range=32 / chroma_me=1 / trellis=2 / 8x8dct=1 / cqm=0 / deadzone=21,11 / fast_pskip=0 / chroma_qp_offset=-3 / threads=12 / lookahead_threads=2 / sliced_threads=0 / nr=0 / decimate=0 / interlaced=0 / bluray_compat=0 / constrained_intra=0 / bframes=9 / b_pyramid=2 / b_adapt=2 / b_bias=0 / direct=3 / weightb=1 / open_gop=0 / weightp=2 / keyint=240 / keyint_min=23 / scenecut=40 / intra_refresh=0 / rc=2pass / mbtree=0 / bitrate=1921 / ratetol=1.0 / qcomp=0.60 / qpmin=0 / qpmax=51 / qpstep=4 / cplxblur=20.0 / qblur=0.5 / ip_ratio=1.40 / pb_ratio=1.30 / aq=1:1.00
Default : Yes
Forced : No
Color range : Limited
Color primaries : BT.709
Transfer characteristics : BT.709
Matrix coefficients : BT.709

Audio
ID : 2
Format : AC-3
Format/Info : Audio Coding 3
Mode extension : CM (complete main)
Format settings, Endianness : Big
Codec ID : A_AC3
Duration : 1 h 13 min
Bit rate mode : Constant
Bit rate : 192 kb/s
Channel(s) : 2 channels
Channel positions : Front: L R
Sampling rate : 44.1 kHz
Frame rate : 28.711 FPS (1536 spf)
Compression mode : Lossy
Stream size : 101 MiB (9%)
Language : Russian
Default : Yes
Forced : No
Релиз от:

Автор релиза: pb.wtf



Скачать Праздник через торрент https://i106.fastpic.ru/big/2019/0103/b4/2490a3340dca70f5c613b0128ef4e0b4.jpg Скачать фильм Праздник через торрент бесплантно в хорошем качестве Описание:Блокадный Ленинград. В загородном доме Воскресенских, живущих «на особом положении», собираются шесть человек, и, несмотря на ... 8 10 23
Info! Золотая раздача, скачанное не засчитывается.
Торрент: Зарегистрирован [2019-01-03 03:40] · скачан: 829 раз
Статус: T временная
Размер: 1.09 GB
Как cкачать? Как скачать Праздник через торрент | qTorrent

% Раздел Тема Автор DL S | L
Фильмы до 2000 г. [ 2.4 GB ] Праздники любви / Les fetes galantes [1965 военный история DVDRip-AVC ] от ExKinoRay dumbia Скачать
1 | 0


>> Регистрируемся здесь <<






Отзывы и комментарии о схеме читаем и пишем здесь: ---> Отзывы и комментарии о схеме

Новые благодарочки в телеграм довольных пользователей:
скриншот   скриншот   скриншот   скриншот   скриншот

03-01-2019 04:37 Праздник Скачать торрент  

Спасибо pb.wtf



03-01-2019 11:22 Праздник Скачать торрент  

как то вот у меня в голове не сочетаются понятия-.."блокадный Ленинград" и.."комедия"...pb.wtf



03-01-2019 13:38 Праздник Скачать торрент  

bolvi68 писал(а):

как то вот у меня в голове не сочетаются понятия-.."блокадный Ленинград" и.."комедия"...

Посмотрите итальянский киношедевр "Жизнь прекрасна"pb.wtf



03-01-2019 17:53 Праздник Скачать торрент  

bolvi68 писал(а):

как то вот у меня в голове не сочетаются понятия-.."блокадный Ленинград" и.."комедия"...

Фильм Супер! Блокада и продукты... Аналог! Новый Год и повышение налогов, цен, пенсионного возраста, ЖКХ... Путин( Ленинград! Свинья))) pb.wtf



03-01-2019 20:16 Праздник Скачать торрент  

какая гадость.понимаю возмущение участников блокады ленинграда.игра актеров отвратительная.полная отсебятина .режиссера на кол посадить непременно.хватило этого дешевого спектакля у них -на час и десять минут.pb.wtf



06-01-2019 14:51 Праздник Скачать торрент  

Откуда такой рейтинг у этого шлака?.. Поражен, кому это может понравиться...pb.wtf



20-01-2019 16:45 Праздник Скачать торрент  

ALEXUSS писал(а):

bolvi68 писал(а):

как то вот у меня в голове не сочетаются понятия-.."блокадный Ленинград" и.."комедия"...

Фильм Супер! Блокада и продукты... Аналог! Новый Год и повышение налогов, цен, пенсионного возраста, ЖКХ... Путин( Ленинград! Свинья)))

Голодаете?pb.wtf



24-01-2019 09:50 Праздник Скачать торрент  

Шуруп писал(а):

ALEXUSS писал(а):

bolvi68 писал(а):

как то вот у меня в голове не сочетаются понятия-.."блокадный Ленинград" и.."комедия"...

Фильм Супер! Блокада и продукты... Аналог! Новый Год и повышение налогов, цен, пенсионного возраста, ЖКХ... Путин( Ленинград! Свинья)))

Голодаете?

тупеютpb.wtf



04-02-2019 09:05 Праздник Скачать торрент  

У меня отец был в блокаде, вывезли, возвращаться не захотел.......
Вот такая комедия.....pb.wtf



    Дорогой пользователь! Огромная просьба, поблагодарите релизера, оцените раздачу и оставьте свои комментарий, если Вы скачали Праздник через торрент бесплатно! Внесите свою лепту в развитие PiratBit!
    Комментировать посты могут только пользователи прошедшие не сложную регистрацию
    Показать сообщения:    

    Праздник через торрент
    Скачать бесплатно Праздник
    Праздник скачать торрент
    Праздник смотреть онлайн
    Cкачать фильм Праздник бесплатно
    Праздник скачать торрент в хорошем качестве
    Праздник смотреть онлайн бесплатно в хорошем качестве


    Вы не можете начинать темы
    Вы не можете отвечать на сообщения
    Вы не можете редактировать свои сообщения
    Вы не можете удалять свои сообщения
    Вы не можете голосовать в опросах
    Вы не можете прикреплять файлы к сообщениям
    Вы можете скачивать файлы