Ссылка на приватное зеркало нашего сайта всего за 1$. Внимание количество ограничено!!!

2 сезон

iTunes

1 сезон

1

iTunes

iTunes

iTunes

1 сезон

RePack

30

ИГРА 18+

pack

ВАЖНО

!!Акция!!

Alien_RageХит недели

RePack

MK11
pack

Забери бонус

RePack

jed

!!Акция!!

Alien_Rage

RePack

fifa19

RePack

Assassins Creed: Odyssey

RePack

NEED FOR SPEED™ PAYBACK

4 сезон

9 сезон

Бесстыжие 9 сезон

Все сериалы

все сериалы на PB.wtf

RePack

FAR CRY 5
  

Серебряный бор / Сезон: 1 / Серии: 1-24 из 24 (Зиновий Ройзман) [2017, мелодрама, семейный, HDTV 1080i] pb.wtf

Серебряный бор через торрент pb.wtf

Размер: 55.51 GB | Добавлен: 1 год 9 мес. назад | Торрент скачан:16 раз
Скачать  

03-01-2019 07:09 Серебряный бор Скачать торрент  

Серебряный борГод выпуска: 2017
Страна: Россия
Жанр: мелодрама, семейный
Продолжительность: ~ 00:50:00 серия
Субтитры: отсутствуют

Режиссер: Зиновий Ройзман



В ролях:

Сергей Маховиков, Мария Шукшина, Михаил Пшеничный, Марк Богатырёв, Нил Кропалов, Алина Ланина, Анастасия Микульчина, Вера Шпак, Светлана Смирнова-Кацагаджиева, Иван Колесников, Дмитрий Шевченко, Анар Халилов, Дмитрий Астрахан, Александр Нестеров, Алексей Фатеев, Ольга Филиппова, Алексей Колган, Игорь Ливанов, Марина Яковлева, Роман Евдокимов, Валентин Смирнитский, Евгения Бордзиловская, Валерий Новиков, Дмитрий Родонов, Татьяна Ермилова, Дмитрий Комов, Даниил Толстых, Борис Щербаков, Анна Гуляренко, Василий Бочкарёв, Михаил Хмуров, Анна Легчилова, Игорь Ясулович, Егор Кучмий, Елена Чернявская, Сергей Сосновский, Олег Васильков

Описание:

Конец 1970-x -начало 1980-x гг. Элитарная советская семья. Иван Архипов — генерал МВД, преподаватель Высшей школы милиции, в прошлом оперативник. Его жена Татьяна Михайловна - редактор в популярной литературной газете. Трое взрослых сыновей: Павел - следователь на Петровке, Алексей - инспектор райкома ВЛКСМ, Костя - заканчивает истфак МГУ. Трехкомнатная квартира в центре Москвы, дачa в Серебряном бору... Но исторические события - смерть Брежнева, дело Щелокова, попытка расследования коррупции в высших эшелонах власти, пускают под откос благополучие этой семьи...

Качество: HDTV 1080i
Формат: MPEG-TS

Видео: AVC, ~ 5 700 Кбит/с, 1920x1080
Аудио#1: Русский (AC3, 6 ch, 384 Кбит/с)
Аудио#2: Русский (MP2, 2 ch, 192 Кбит/с)
скриншот  скриншот  скриншот  скриншот  

Общее
Идентификатор : 1 (0x1)
Полное имя : D:\Serebrjanyj bor.HDTV(1080i).GeneralFilm\01.Serebrjanyj bor.HDTV(1080i).GeneralFilm.ts
Формат : MPEG-TS
Размер файла : 2,33 Гбайт
Продолжительность : 50 м. 41 с.
Режим общего битрейта : Переменный
Общий поток : 6569 Кбит/сек

Видео
Идентификатор : 1904 (0x770)
Идентификатор меню : 80 (0x50)
Формат : AVC
Формат/Информация : Advanced Video Codec
Профиль формата : High@L4
Параметр CABAC формата : Да
Параметр RefFrames формата : 3 кадра
Идентификатор кодека : 27
Продолжительность : 50 м. 40 с.
Битрейт : 5662 Кбит/сек
Ширина : 1920 пикселей
Высота : 1080 пикселей
Соотношение сторон : 16:9
Частота кадров : 25,000 кадров/сек
Стандарт вещания : Component
Цветовое пространство : YUV
Субдискретизация насыщенности : 4:2:0
Битовая глубина : 8 бит
Тип развёртки : Чересстрочная
Метод сохранения типа развёртки : Раздельные поля
Порядок развёртки : Верхнее поле первое
Бит/(Пиксели*Кадры) : 0.109
Размер потока : 2,00 Гбайт (86%)
Цветовой диапазон : Limited
Основные цвета : BT.709
Характеристики трансфера : BT.709
Коэффициенты матрицы : BT.709

Аудио #1
Идентификатор : 2904 (0xB58)
Идентификатор меню : 80 (0x50)
Формат : AC-3
Формат/Информация : Audio Coding 3
Расширение режима : CM (complete main)
Параметр Endianness формата : Big
Идентификатор кодека : 6
Продолжительность : 50 м. 40 с.
Вид битрейта : Постоянный
Битрейт : 384 Кбит/сек
Каналы : 6 каналов
Расположение каналов : Front: L C R, Side: L R, LFE
Частота : 48,0 КГц
Частота кадров : 31,250 кадров/сек (1536 spf)
Метод сжатия : С потерями
Задержка видео : -120 мс.
Размер потока : 139 Мбайт (6%)
Язык : Russian

Аудио #2
Идентификатор : 2905 (0xB59)
Идентификатор меню : 80 (0x50)
Формат : MPEG Audio
Версия формата : Version 1
Профиль формата : Layer 2
Идентификатор кодека : 3
Продолжительность : 50 м. 40 с.
Вид битрейта : Постоянный
Битрейт : 192 Кбит/сек
Каналы : 2 канала
Частота : 48,0 КГц
Метод сжатия : С потерями
Задержка видео : -120 мс.
Размер потока : 69,6 Мбайт (3%)
Язык : Russian

pb.wtf



Скачать Серебряный бор через торрент http://s019.radikal.ru/i641/1712/df/1a1d45f3bea9.jpg Скачать фильм Серебряный бор через торрент бесплантно в хорошем качестве Описание: Конец 1970-x -начало 1980-x гг. Элитарная советская семья. Иван Архипов — генерал МВД, преподаватель Высшей школы милиции, в ... 10 10 2
Info! Золотая раздача, скачанное не засчитывается.
Торрент: Зарегистрирован [2019-01-03 07:09] · скачан: 16 раз
Статус: √ проверено
Размер: 55.51 GB
Как cкачать? Как скачать Серебряный бор через торрент | qTorrent

28-11-2019 20:33  

Отключить всю рекламу на сайте

    Дорогой пользователь! Огромная просьба, поблагодарите релизера, оцените раздачу и оставьте свои комментарий, если Вы скачали Серебряный бор через торрент бесплатно! Внесите свою лепту в развитие PiratBit!
    Комментировать посты могут только пользователи прошедшие не сложную регистрацию
    Показать сообщения:    

    Серебряный бор через торрент
    Скачать бесплатно Серебряный бор
    Серебряный бор скачать торрент
    Серебряный бор смотреть онлайн
    Cкачать фильм Серебряный бор бесплатно
    Серебряный бор скачать торрент в хорошем качестве
    Серебряный бор смотреть онлайн бесплатно в хорошем качестве


    Вы не можете начинать темы
    Вы не можете отвечать на сообщения
    Вы не можете редактировать свои сообщения
    Вы не можете удалять свои сообщения
    Вы не можете голосовать в опросах
    Вы не можете прикреплять файлы к сообщениям
    Вы можете скачивать файлы