Ссылка на приватное зеркало нашего сайта всего за 1$. Внимание количество ограничено!!!

2 сезон

iTunes

1 сезон

1

iTunes

iTunes

iTunes

1 сезон

RePack

30

ИГРА 18+

pack

ВАЖНО

!!Акция!!

Alien_RageХит недели

RePack

MK11
pack

Забери бонус

RePack

jed

!!Акция!!

Alien_Rage

RePack

fifa19

RePack

Assassins Creed: Odyssey

RePack

NEED FOR SPEED™ PAYBACK

4 сезон

9 сезон

Бесстыжие 9 сезон

Все сериалы

все сериалы на PB.wtf

RePack

FAR CRY 5
  

Торгсин / Сезон: 1 / Серии: 1-8 из 8 (Дмитрий Петрунь) [2017, драма, HDTVRip] pb.wtf

Торгсин через торрент pb.wtf

Размер: 7.03 GB | Добавлен: 1 год 9 мес. назад | Торрент скачан:78 раз
Скачать  

03-01-2019 08:15 Торгсин Скачать торрент  

ТоргсинГод выпуска: 2017
Страна: Россия
Жанр: драма
Продолжительность: ~ 00:55:00 серия
Субтитры: отсутствуют

Режиссер: Дмитрий Петрунь



В ролях:

Александра Бортич, Григорий Антипенко, Александр Носик, Екатерина Климова, Роман Мадянов, Сергей Шакуров, Марина Коняшкина, Алексей Демидов, Сергей Юшкевич, Сергей Горобченко, Сергей Шаталов, Василиса Савкина, Ольга Крылова (II), Екатерина Копанова, Михаил Павлик, Алексей Ошурков

Описание:

1934 год. СССР живет ярко. Голод 1932-33 годов уже позади, вот-вот отменят карточки. Эпоха Большого террора еще не началась. А приближающуюся войну даже представить себе никто не может. Это время великих строек и больших надежд. Почти вручную строятся Днепрогэс, Уралмаш, Магнитка, Челябинский тракторный, Московский и Горьковский автозаводы. Нужно срочно закупать оборудование за границей, но где взять золото и валюту для индустриализации? Для этих целей по всей стране работают «Торгсины» — «магазины для торговли с иностранцами» — оазисы благополучия и изобилия, которых советские люди не видели с дореволюционных времен. В обмен на золото, драгоценные камни, предметы старины или валюту состоятельные советские граждане могут купить здесь деликатесные продукты питания и недоступные импортные товары. Бедные приходят за конфетами и пирожными к празднику. А «лишенцы», причисленные к буржуазному сословию и лишенные продуктовых карточек, несут в «Торгсины» последние колечки и сережки, чтобы не умереть от голода.

Качество: HDTVRip
Формат: AVI

Видео: 720x400 (1.80:1), 25 fps, XviD build 50 ~2300 kbps avg, 0.23 bit/pixel
Аудио: 48 kHz, MP3 Dolby Digital, 2/0 (L,R) ch, ~128.00 kbps avg

Общее
Полное имя : D:\Torgsin.[tahiy]\Torgsin.[S01E01].[tahiy].avi
Формат : AVI
Формат/Информация : Audio Video Interleave
Размер файла : 899 Мбайт
Продолжительность : 50 м. 58 с.
Общий поток : 2467 Кбит/сек
Программа кодирования : VirtualDubMod 1.5.10.3 | www.virtualdub-fr.org || (build 2550/release)
Библиотека кодирования : VirtualDubMod build 2550/release

Видео
Идентификатор : 0
Формат : MPEG-4 Visual
Профиль формата : Advanced Simple@L5
Параметр BVOP формата : 1
Параметр QPel формата : Нет
Параметр GMC формата : Без точки перехода
Параметр матрицы формата : Default (MPEG)
Идентификатор кодека : XVID
Идентификатор кодека/Подсказка : XviD
Продолжительность : 50 м. 58 с.
Битрейт : 2329 Кбит/сек
Ширина : 720 пикселей
Высота : 400 пикселей
Соотношение сторон : 16:9
Частота кадров : 25,000 кадров/сек
Цветовое пространство : YUV
Субдискретизация насыщенности : 4:2:0
Битовая глубина : 8 бит
Тип развёртки : Прогрессивная
Метод сжатия : С потерями
Бит/(Пиксели*Кадры) : 0.323
Размер потока : 849 Мбайт (94%)
Библиотека кодирования : XviD 73

Аудио
Идентификатор : 1
Формат : MPEG Audio
Версия формата : Version 1
Профиль формата : Layer 3
Режим : Joint stereo
Идентификатор кодека : 55
Идентификатор кодека/Подсказка : MP3
Продолжительность : 50 м. 58 с.
Вид битрейта : Постоянный
Битрейт : 128 Кбит/сек
Каналы : 2 канала
Частота : 48,0 КГц
Метод сжатия : С потерями
Размер потока : 46,7 Мбайт (5%)
Выравнивание : Соединение по промежуткам
Продолжительность промежутка : 40 мс. (1,00 видеокадр)
Время предзагрузки промежутка : 504 мс.
Библиотека кодирования : LAME3.99r
Настройки программы : -m j -V 4 -q 2 -lowpass 17 -b 128

pb.wtf



Скачать Торгсин через торрент http://i91.fastpic.ru/big/2017/0415/b3/a95aead627a138e716707f835aaeeeb3.jpg Скачать фильм Торгсин через торрент бесплантно в хорошем качестве Описание: 1934 год. СССР живет ярко. Голод 1932-33 годов уже позади, вот-вот отменят карточки. Эпоха Большого террора еще не началась. А ... 8.5 10 6
Info! Золотая раздача, скачанное не засчитывается.
Торрент: Зарегистрирован [2019-01-03 08:15] · скачан: 78 раз
Статус: √ проверено
Размер: 7.03 GB
Как cкачать? Как скачать Торгсин через торрент | qTorrent

% Раздел Тема Автор DL S | L
Наши сериалы [ 6.68 GB ] Торгсин / Сезон: 1 / Серии: 1-8 из 8 [2017 WEB-DLRip-AVC] bober100 Скачать
1 | 0
Наши сериалы [ 10.42 GB ] Торгсин / Сезон: 1 / Серии: 1-8 из 8 [2017 HDTVRip 720p] bober100 Скачать
1 | 0
Наши сериалы [ 23.93 GB ] Торгсин / Сезон: 1 / Серии: 1-8 из 8 [2017 HDTV 1080i] bober100 Скачать
1 | 0

28-11-2019 20:33  

Отключить всю рекламу на сайте

    Дорогой пользователь! Огромная просьба, поблагодарите релизера, оцените раздачу и оставьте свои комментарий, если Вы скачали Торгсин через торрент бесплатно! Внесите свою лепту в развитие PiratBit!
    Комментировать посты могут только пользователи прошедшие не сложную регистрацию
    Показать сообщения:    

    Торгсин через торрент
    Скачать бесплатно Торгсин
    Торгсин скачать торрент
    Торгсин смотреть онлайн
    Cкачать фильм Торгсин бесплатно
    Торгсин скачать торрент в хорошем качестве
    Торгсин смотреть онлайн бесплатно в хорошем качестве


    Вы не можете начинать темы
    Вы не можете отвечать на сообщения
    Вы не можете редактировать свои сообщения
    Вы не можете удалять свои сообщения
    Вы не можете голосовать в опросах
    Вы не можете прикреплять файлы к сообщениям
    Вы можете скачивать файлы