Ссылка на приватное зеркало всего за 1$. Внимание количество ограничено!!!

OK

1+1

iTunes

мы

OK

1

WEB-DLRip

Джокер

Пифагор

Ведьмак / The Witcher сериал

iTunes

ПШазам

ОК

Оно 2

iTunes

30
pack

Вам бонус

ВАЖНО

!!Акция!!

Alien_RageХит недели

RePack

Resident Evil 21

ИГРА 18+

pack

RePack

jed

RePack

fifa19

RePack

Assassins Creed: Odyssey

RePack

NEED FOR SPEED™ PAYBACK

4 сезон

9 сезон

Бесстыжие 9 сезон

Все сериалы

все сериалы на PB.wtf

RePack

FAR CRY 5
  

Блуждающий разум / Nowhere Mind (Бен Ниссен) [2018 г., Триллер, WEBRip, Любительский (двухголосый) HiWay Grope] pb.wtf

Блуждающий разум через торрент pb.wtf

Размер: 1.46 GB | Добавлен: 1 год назад | Торрент скачан:54 раза
Скачать  

03-01-2019 08:28 Блуждающий разум Скачать торрент  

Блуждающий разум / Nowhere Mind
Год выпуска: 2018
Страна: США, Haphazard Films
Жанр: Триллер
Продолжительность: 01:45:07
Перевод: Любительский (двухголосый) HiWay Grope
Субтитры: Отсутствуют

Режиссер: Бен Ниссен

rating

В ролях: Патриак Коакли, Дэвид Скотт Кроуфорд, Эндрю Грейвс, Питер Нерад, Армандо Рейес, Кэйси Сирлс, Джоетт Уотерс, Чернис Ивет

Описание: Айван с помощью экспериментальной медитации пытается научиться астральному выходу из тела, чтобы излечиться от редкой формы психологического заболевания. Когда старый друг приглашает его в поход, он соглашается, чтобы скрыть свою тайную связь с его невестой. В итоге их игра в кошки-мышки может указать ему путь к совершенно неожиданному способу излечения.

Доп. информация: Реклама: присутствует

Качество: WEBRip
Формат: AVI
Видео кодек: XviD
Аудио кодек: AC3
Видео: XviD, 720x400, 23.976 fps, ~1791 kbps
Аудио#1: AC3, 48 kHz, 2 ch, 192 Kbps
скриншот   скриншот   скриншот   скриншот  

General
Complete name : D:Nowhere.Mind.2018.WEBRip.HiWayGropeNowhere.Mind.2018.WEBRip.HiWayGrope.avi
Format : AVI
Format/Info : Audio Video Interleave
Format profile : OpenDML
File size : 1.46 GiB
Duration : 1 h 45 min
Overall bit rate : 1 990 kb/s
Writing application : Lavf57.71.100

Video
ID : 0
Format : MPEG-4 Visual
Format profile : Advanced Simple@L5
Format settings, BVOP : No
Format settings, QPel : No
Format settings, GMC : No warppoints
Format settings, Matrix : Default (H.263)
Codec ID : XVID
Codec ID/Hint : XviD
Duration : 1 h 45 min
Bit rate : 1 786 kb/s
Width : 720 pixels
Height : 400 pixels
Display aspect ratio : 16:9
Frame rate : 23.976 (24000/1001) FPS
Color space : YUV
Chroma subsampling : 4:2:0
Bit depth : 8 bits
Scan type : Progressive
Compression mode : Lossy
Bits/(Pixel*Frame) : 0.259
Stream size : 1.31 GiB (90%)
Writing library : XviD 67

Audio
ID : 1
Format : AC-3
Format/Info : Audio Coding 3
Commercial name : Dolby Digital
Codec ID : 2000
Duration : 1 h 45 min
Bit rate mode : Constant
Bit rate : 192 kb/s
Channel(s) : 2 channels
Channel layout : L R
Sampling rate : 48.0 kHz
Frame rate : 31.250 FPS (1536 SPF)
Bit depth : 16 bits
Compression mode : Lossy
Stream size : 144 MiB (10%)
Alignment : Aligned on interleaves
Interleave, duration : 32 ms (0.77 video frame)
Service kind : Complete Main

pb.wtf



Скачать Блуждающий разум через торрент http://pic1.kartinco.top/images/12/kkmej.jpg Скачать фильм Блуждающий разум через торрент бесплантно в хорошем качестве Описание: Айван с помощью экспериментальной медитации пытается научиться астральному выходу из тела, чтобы излечиться от редкой формы ... 10 10 1
Торрент: Зарегистрирован [2019-01-03 08:28] · скачан: 54 раз
Статус: T временная
Размер: 1.46 GB
Как cкачать? Как скачать Блуждающий разум через торрент | qTorrent

28-11-2019 20:33  

Отключить всю рекламу на сайте

    Дорогой пользователь! Огромная просьба, поблагодарите релизера, оцените раздачу и оставьте свои комментарий, если Вы скачали Блуждающий разум через торрент бесплатно! Внесите свою лепту в развитие PiratBit!
    Комментировать посты могут только пользователи прошедшие не сложную регистрацию
    Показать сообщения:    

    Блуждающий разум через торрент
    Скачать бесплатно Блуждающий разум
    Блуждающий разум скачать торрент
    Блуждающий разум смотреть онлайн
    Cкачать фильм Блуждающий разум бесплатно
    Блуждающий разум скачать торрент в хорошем качестве
    Блуждающий разум смотреть онлайн бесплатно в хорошем качестве


    Вы не можете начинать темы
    Вы не можете отвечать на сообщения
    Вы не можете редактировать свои сообщения
    Вы не можете удалять свои сообщения
    Вы не можете голосовать в опросах
    Вы не можете прикреплять файлы к сообщениям
    Вы можете скачивать файлы