Ссылка на приватное зеркало нашего сайта всего за 1$. Внимание количество ограничено!!!

2 сезон

iTunes

1 сезон

1

iTunes

iTunes

iTunes

1 сезон

RePack

30

ИГРА 18+

pack

ВАЖНО

!!Акция!!

Alien_RageХит недели

RePack

MK11
pack

Забери бонус

RePack

jed

!!Акция!!

Alien_Rage

RePack

fifa19

RePack

Assassins Creed: Odyssey

RePack

NEED FOR SPEED™ PAYBACK

4 сезон

9 сезон

Бесстыжие 9 сезон

Все сериалы

все сериалы на PB.wtf

RePack

FAR CRY 5
  

Торгсин / Сезон: 1 / Серии: 1-8 из 8 (Дмитрий Петрунь) [2017, драма, HDTV 1080i] pb.wtf

Торгсин через торрент pb.wtf

Размер: 23.93 GB | Добавлен: 1 год 9 мес. назад | Торрент скачан:20 раз
Скачать  

03-01-2019 08:40 Торгсин Скачать торрент  

ТоргсинГод выпуска: 2017
Страна: Россия
Жанр: драма
Продолжительность: ~ 00:55:00 серия
Субтитры: отсутствуют

Режиссер: Дмитрий Петрунь



В ролях:

Александра Бортич, Григорий Антипенко, Александр Носик, Екатерина Климова, Роман Мадянов, Сергей Шакуров, Марина Коняшкина, Алексей Демидов, Сергей Юшкевич, Сергей Горобченко, Сергей Шаталов, Василиса Савкина, Ольга Крылова (II), Екатерина Копанова, Михаил Павлик, Алексей Ошурков

Описание:

1934 год. СССР живет ярко. Голод 1932-33 годов уже позади, вот-вот отменят карточки. Эпоха Большого террора еще не началась. А приближающуюся войну даже представить себе никто не может. Это время великих строек и больших надежд. Почти вручную строятся Днепрогэс, Уралмаш, Магнитка, Челябинский тракторный, Московский и Горьковский автозаводы. Нужно срочно закупать оборудование за границей, но где взять золото и валюту для индустриализации? Для этих целей по всей стране работают «Торгсины» — «магазины для торговли с иностранцами» — оазисы благополучия и изобилия, которых советские люди не видели с дореволюционных времен. В обмен на золото, драгоценные камни, предметы старины или валюту состоятельные советские граждане могут купить здесь деликатесные продукты питания и недоступные импортные товары. Бедные приходят за конфетами и пирожными к празднику. А «лишенцы», причисленные к буржуазному сословию и лишенные продуктовых карточек, несут в «Торгсины» последние колечки и сережки, чтобы не умереть от голода.

Качество: HDTV 1080i
Формат: TS

Видео: MPEG-4 AVC, 1920x1080 (16:9), 25.000 fps, 7869 Kbps, 0.52 bits/pixel
Аудио: 48 kHz, MP2, 2 ch, 192 Kbps
скриншот  скриншот  скриншот  скриншот  скриншот  

General #1
ID : 1 (0x1)
Complete name : C:\Users\Andreas\Downloads\Torgsin.2017.HDTV.1080i\Torgsin.01.2017.HDTV.1080i.ts
Format : MPEG-TS
File size : 3.02 GiB
Duration : 50mn 56s
Overall bit rate mode : Variable
Overall bit rate : 8 483 Kbps
Video #2911
ID : 2911 (0xB5F)
Menu ID : 1192 (0x4A8)
Format : AVC
Format/Info : Advanced Video Codec
Format profile : High@L4.0
Format settings, CABAC : Yes
Format settings, ReFrames : 4 frames
Codec ID : 27
Duration : 50mn 58s
Bit rate : 7 869 Kbps
Width : 1 920 pixels
Height : 1 080 pixels
Display aspect ratio : 16:9
Frame rate : 25.000 fps
Color space : YUV
Chroma subsampling : 4:2:0
Bit depth : 8 bits
Scan type : MBAFF
Scan order : Top Field First
Bits/(Pixel*Frame) : 0.152
Stream size : 2.80 GiB (93%)

Audio #2912
ID : 2912 (0xB60)
Menu ID : 1192 (0x4A8)
Format : MPEG Audio
Format version : Version 1
Format profile : Layer 2
Codec ID : 3
Duration : 50mn 58s
Bit rate mode : Constant
Bit rate : 192 Kbps
Channel(s) : 2 channels
Sampling rate : 48.0 KHz
Compression mode : Lossy
Stream size : 70.0 MiB (2%)
Language : Russian

pb.wtf



Скачать Торгсин через торрент http://i042.radikal.ru/1704/dd/299058f552e2.jpg Скачать фильм Торгсин через торрент бесплантно в хорошем качестве Описание: 1934 год. СССР живет ярко. Голод 1932-33 годов уже позади, вот-вот отменят карточки. Эпоха Большого террора еще не началась. А ... 10 10 2
Торрент: Зарегистрирован [2019-01-03 08:40] · скачан: 20 раз
Статус: √ проверено
Размер: 23.93 GB
Как cкачать? Как скачать Торгсин через торрент | qTorrent

% Раздел Тема Автор DL S | L
Наши сериалы [ 6.68 GB ] Торгсин / Сезон: 1 / Серии: 1-8 из 8 [2017 WEB-DLRip-AVC] bober100 Скачать
1 | 0
Наши сериалы [ 10.42 GB ] Торгсин / Сезон: 1 / Серии: 1-8 из 8 [2017 HDTVRip 720p] bober100 Скачать
1 | 0
Наши сериалы [ 7.03 GB ] Торгсин / Сезон: 1 / Серии: 1-8 из 8 [2017 HDTVRip] bober100 Скачать
1 | 0

28-11-2019 20:33  

Отключить всю рекламу на сайте

    Дорогой пользователь! Огромная просьба, поблагодарите релизера, оцените раздачу и оставьте свои комментарий, если Вы скачали Торгсин через торрент бесплатно! Внесите свою лепту в развитие PiratBit!
    Комментировать посты могут только пользователи прошедшие не сложную регистрацию
    Показать сообщения:    

    Торгсин через торрент
    Скачать бесплатно Торгсин
    Торгсин скачать торрент
    Торгсин смотреть онлайн
    Cкачать фильм Торгсин бесплатно
    Торгсин скачать торрент в хорошем качестве
    Торгсин смотреть онлайн бесплатно в хорошем качестве


    Вы не можете начинать темы
    Вы не можете отвечать на сообщения
    Вы не можете редактировать свои сообщения
    Вы не можете удалять свои сообщения
    Вы не можете голосовать в опросах
    Вы не можете прикреплять файлы к сообщениям
    Вы можете скачивать файлы