Ссылка на приватное зеркало нашего сайта всего за 1$. Внимание количество ограничено!!!

2 сезон

iTunes

1 сезон

1

2 сезон

2 сезон

iTunes

1 сезон

RePack

30

Новинка

ВАЖНО

ИГРА 18+

pack

RePack

MK11
pack

Забери бонус

RePack

jed

!!Акция!!

Alien_Rage

RePack

fifa19

RePack

Assassins Creed: Odyssey

RePack

NEED FOR SPEED™ PAYBACK

4 сезон

9 сезон

Бесстыжие 9 сезон

Все сериалы

все сериалы на PB.wtf

RePack

FAR CRY 5
  

Стальная звезда / Жестяная звезда / Tin Star / Сезон: 1 / Серии 1-10 из 10 (Жиль Банньер, Марк Йобст, Грант Харви) [2017, Драма, триллер, WEB-DLRip-AVC] [MVO] (Good People) pb.wtf

Стальная звезда через торрент pb.wtf

Размер: 9.85 GB | Добавлен: 1 год 10 мес. назад | Торрент скачан:57 раз
Скачать  

03-01-2019 09:48 Стальная звезда Скачать торрент  

Стальная звезда / Жестяная звезда / Tin Star
• Год выпуска: 2017
• Страна: Великобритания, Kudos Film and Television
• Жанр: Драма, триллер
• Продолжительность: ~ 00:45:00
• Перевод: Профессиональный (многоголосый закадровый) cтудия Good People
• Субтитры: Русские, английские

• Режиссёр: Жиль Банньер, Марк Йобст, Грант Харви

• В ролях: Тим Рот, Кристина Хендрикс, Кристофер Хейердал, Оливер Куперсмит, Линда Бойд, Tobi Bamtefa, Майк Ковач, Майлс Питерман, Сара Подемски, Райан Кеннеди

• Описание: История о том, как бывший полицейский детектив Джим Уорт из Лондона вместе с семьёй перебрался в городок у скалистых гор, чтобы возглавить местную полицию. После открытия неподалёку нефтеочистительного завода городок наводнили мигранты, спровоцировав рост преступности, проституции и наркоторговли. Попытки Джима восстановить порядок превратили его жизнь и жизнь его близких в ад, от которого некуда скрыться.

8-голосая озвучка. Тима Рота озвучивает голос из "Обмани меня", "Хардкор" и других фильмов.

ratingскриншот  скриншот  

Сбор материала, обработка и производство рипов: скриншот  

• Качество: WEB-DLRip-AVC
• Формат: MKV
• Видео: MPEG-4 AVC, ~ 2200 Кбит/с, 1024x512
• Аудио 1: AC3, 48,0 КГц, 6 ch, 384 kbps - Rus
• Аудио 2: AC3, 48,0 КГц, 6 ch, 384 kbps - Eng
Общее
Уникальный идентификатор : 220749876616561371384799704311394473511 (0xA612E137EC3483F88827D4F356E41627)
Полное имя : Жестяная звезда. Сериал. Good People (WEB-DLRip AVC)\s01e01. И смешно, и страшно.mkv
Формат : Matroska
Версия формата : Version 2
Размер файла : 995 Мбайт
Продолжительность : 46 м. 46 с.
Общий поток : 2973 Кбит/сек
Название фильма : Fun And (S)laughter
Дата кодирования : UTC 2018-01-15 11:07:06
Программа кодирования : mkvmerge v7.8.0 ('River Man') 32bit built on Apr 3 2015 12:11:22
Библиотека кодирования : libebml v1.3.1 + libmatroska v1.4.2
Обложка : Yes
Attachments : cover_Tin_Star.jpg

Видео
Идентификатор : 1
Формат : AVC
Формат/Информация : Advanced Video Codec
Профиль формата : High@L3.1
Настройки формата : CABAC / 3 Ref Frames
Параметр CABAC формата : Да
Параметр RefFrames формата : 3 кадра
Параметр GOP формата : M=1, N=25
Идентификатор кодека : V_MPEG4/ISO/AVC
Продолжительность : 46 м. 46 с.
Битрейт : 2146 Кбит/сек
Ширина : 1024 пикселя
Высота : 512 пикселей
Соотношение сторон : 2,000
Режим частоты кадров : Постоянный
Частота кадров : 24,000 кадра/сек
Цветовое пространство : YUV
Субдискретизация насыщенности : 4:2:0
Битовая глубина : 8 бит
Тип развёртки : Прогрессивная
Бит/(Пиксели*Кадры) : 0.171
Размер потока : 718 Мбайт (72%)
Язык : English
Default : Да
Forced : Нет

Аудио #1
Идентификатор : 2
Формат : AC-3
Формат/Информация : Audio Coding 3
Идентификатор кодека : A_AC3
Продолжительность : 46 м. 46 с.
Вид битрейта : Постоянный
Битрейт : 384 Кбит/сек
Каналы : 6 каналов
Расположение каналов : Front: L C R, Side: L R, LFE
Частота : 48,0 КГц
Частота кадров : 31,250 кадров/сек (1536 SPF)
Битовая глубина : 16 бит
Метод сжатия : С потерями
Размер потока : 128 Мбайт (13%)
Язык : Russian
ServiceKind/String : Complete Main
Default : Да
Forced : Нет

Аудио #2
Идентификатор : 3
Формат : AC-3
Формат/Информация : Audio Coding 3
Идентификатор кодека : A_AC3
Продолжительность : 46 м. 46 с.
Вид битрейта : Постоянный
Битрейт : 384 Кбит/сек
Каналы : 6 каналов
Расположение каналов : Front: L C R, Side: L R, LFE
Частота : 48,0 КГц
Частота кадров : 31,250 кадров/сек (1536 SPF)
Битовая глубина : 16 бит
Метод сжатия : С потерями
Размер потока : 128 Мбайт (13%)
Язык : English
ServiceKind/String : Complete Main
Default : Нет
Forced : Нет

Текст #1
Идентификатор : 4
Формат : UTF-8
Идентификатор кодека : S_TEXT/UTF8
Идентификатор кодека/Информация : UTF-8 Plain Text
Язык : Russian
Default : Нет
Forced : Нет

Текст #2
Идентификатор : 5
Формат : UTF-8
Идентификатор кодека : S_TEXT/UTF8
Идентификатор кодека/Информация : UTF-8 Plain Text
Язык : English
Default : Нет
Forced : Нет

Меню
00:00:00.000 : en:Amazon Original
00:00:05.000 : en:The Worth family stops for gas
00:03:04.000 : en:Title Sequence
00:03:16.000 : en:One year earlier
00:07:01.000 : en:Angela takes the wheel
00:09:45.000 : en:Jim stops by the station
00:12:08.000 : en:Jim's support group sings him happy birthday
00:15:06.000 : en:A new woman in town
00:17:32.000 : en:Elizabeth holds a town meeting to explain North Stream Oil's intentions
00:20:16.000 : en:Elizabeth returns to the car to hear feedback from Gagnon
00:21:00.000 : en:One year later
00:22:43.000 : en:Jim invites himself to Elizabeth and Lyle Jr.'s meeting at the diner
00:26:37.000 : en:Gagnon meets with Jim at the station
00:28:09.000 : en:Dr. Bouchard tells Jim she's lost her credibility
00:30:50.000 : en:Jim's family fun day is cut short when he's called to a murder scene
00:33:44.000 : en:Jim can't shake the feeling of sudden loss
00:36:05.000 : en:Petey finds a surprise at the front door
00:41:00.000 : en:How the family arrives at the gas station
00:43:31.000 : en:Jim and Anna wait at the hospital
00:45:16.000 : en:End Credits
скриншот  скриншот  скриншот  
pb.wtf



Скачать Стальная звезда через торрент http://i89.fastpic.ru/big/2017/1020/ce/18f772f79bb3867e0b89e1e92ea4cece.png Скачать фильм Стальная звезда через торрент бесплантно в хорошем качестве Описание: История о том, как бывший полицейский детектив Джим Уорт из Лондона вместе с семьёй перебрался в городок у скалистых гор, чтобы ... 8 10 1
Торрент: Зарегистрирован [2019-01-03 09:48] · скачан: 57 раз
Статус: √ проверено
Размер: 9.85 GB
Как cкачать? Как скачать Стальная звезда через торрент | qTorrent

% Раздел Тема Автор DL S | L
Зарубежные сериалы [ 5.49 GB ] Стальная звезда / Жестяная звезда / Tin Star / Сезон: 2 / Серии: 1-10 из 10 [2019 WEB-DLRip] MVO [SDI Media] bober100 Скачать
1 | 0
Зарубежные сериалы [ 15.88 GB ] Стальная звезда / Жестяная звезда / Tin Star / Сезон: 2 / Серии: 1-10 из 10 [2019 WEB-DL 720p] MVO [SDI Media] bober100 Скачать
1 | 0
Зарубежные сериалы [ 30.54 GB ] Стальная звезда / Жестяная звезда / Tin Star / Сезон: 2 / Серии: 1-10 из 10 [2019 WEB-DL 1080p] MVO [SDI Media] bober100 Скачать
1 | 0
Зарубежные сериалы [ 5.6 GB ] Стальная звезда / Жестяная звезда / Tin Star / Сезон: 1 / Серии 1-10 из 10 [2017 WEBRip] [MVO] killermax2013 Скачать
2 | 0

28-11-2019 20:33  

Отключить всю рекламу на сайте

03-01-2019 09:49 Стальная звезда Скачать торрент  

Премьера второго сезона сериала «Стальная звезда» состоится 24 январяpb.wtf



    Дорогой пользователь! Огромная просьба, поблагодарите релизера, оцените раздачу и оставьте свои комментарий, если Вы скачали Стальная звезда через торрент бесплатно! Внесите свою лепту в развитие PiratBit!
    Комментировать посты могут только пользователи прошедшие не сложную регистрацию
    Показать сообщения:    

    Стальная звезда через торрент
    Скачать бесплатно Стальная звезда
    Стальная звезда скачать торрент
    Стальная звезда смотреть онлайн
    Cкачать фильм Стальная звезда бесплатно
    Стальная звезда скачать торрент в хорошем качестве
    Стальная звезда смотреть онлайн бесплатно в хорошем качестве


    Вы не можете начинать темы
    Вы не можете отвечать на сообщения
    Вы не можете редактировать свои сообщения
    Вы не можете удалять свои сообщения
    Вы не можете голосовать в опросах
    Вы не можете прикреплять файлы к сообщениям
    Вы можете скачивать файлы