Ссылка на приватное зеркало нашего сайта всего за 1$. Внимание количество ограничено!!!

2 сезон

iTunes

1 сезон

1

2 сезон

2 сезон

iTunes

1 сезон

RePack

30

Новинка

ВАЖНО

ИГРА 18+

pack

RePack

MK11
pack

Забери бонус

RePack

jed

!!Акция!!

Alien_Rage

RePack

fifa19

RePack

Assassins Creed: Odyssey

RePack

NEED FOR SPEED™ PAYBACK

4 сезон

9 сезон

Бесстыжие 9 сезон

Все сериалы

все сериалы на PB.wtf

RePack

FAR CRY 5
  

Чужие против девочек из колледжа / Чужие против Титаника / Aliens vs. Titanic / Predator World / Aliens vs. College Girls (Джефф Лерой) [2017, фантастика, WEB-DL 1080p] MVO [Синема УС] pb.wtf

Чужие против девочек из колледжа через торрент pb.wtf

Размер: 6.31 GB | Добавлен: 1 год 10 мес. назад | Торрент скачан:133 раза
Скачать  

03-01-2019 11:14 Чужие против девочек из колледжа Скачать торрент  

Чужие против девочек из колледжа / Чужие против Титаника /
Aliens vs. Titanic / Predator World / Aliens vs. College Girls


Год выпуска: 2017
Страна: США
Жанр: фантастика
Продолжительность: 01:25:06
Перевод: Любительский (многоголосый) | Синема УС
Субтитры: английские (full + SDH)

Режиссер: Джефф Лерой

rating

В ролях: Таша Такоша, Роберт Райн, Брентон Джонс, Келли Эрин Декер, Уильям Гэбриел Грайр, Лэла Прайс

Описание: Экипаж круизного космического корабля «TITAN 1C» столкнулся с астероидом и потерпел крушение во время своего первого полёта. Большинству пассажиров посчастливилось умереть, но пять человек выжили. И очень скоро пожалели об этом...

Качество: WEB-DL 1080p
Формат: MKV

Видео: 1920x1080 (16:9), 23.976 fps, MPEG-4 AVC ~10.2 Mbps avg
Аудио#1: 48.0 kHz, AC3 Dolby Digital, 2/0 (L,R) ch, ~192 kbps | RUS / Синема УС
Аудио#2: 48.0 kHz, Enhanced Audio Coding 3, 2/0 (L,R) ch, ~224 kbps | ENG
скриншот  скриншот  скриншот  

General
Unique ID : 325836273873600290853353654091303353443 (0xF521C89F6368C6B274F59CB366F3FC63)
Complete name : Aliens vs. Titanic (2017).mkv
Format : Matroska
Format version : Version 4 / Version 2
File size : 6.31 GiB
Duration : 1 h 25 min
Overall bit rate : 10.6 Mb/s
Encoded date : UTC 2018-12-17 10:25:05
Writing application : mkvmerge v28.2.0 ('The Awakening') 64-bit
Writing library : libebml v1.3.6 + libmatroska v1.4.9

Video
ID : 1
Format : AVC
Format/Info : Advanced Video Codec
Format profile : High@L4
Format settings, CABAC : Yes
Format settings, RefFrames : 4 frames
Codec ID : V_MPEG4/ISO/AVC
Duration : 1 h 25 min
Bit rate : 10.2 Mb/s
Width : 1 920 pixels
Height : 1 080 pixels
Display aspect ratio : 16:9
Frame rate mode : Constant
Frame rate : 23.976 (24000/1001) FPS
Color space : YUV
Chroma subsampling : 4:2:0
Bit depth : 8 bits
Scan type : Progressive
Bits/(Pixel*Frame) : 0.205
Stream size : 6.06 GiB (96%)
Default : Yes
Forced : No
Color range : Limited
Color primaries : BT.709
Transfer characteristics : BT.709
Matrix coefficients : BT.709

Audio #1
ID : 2
Format : AC-3
Format/Info : Audio Coding 3
Format settings, Endianness : Big
Codec ID : A_AC3
Duration : 1 h 25 min
Bit rate mode : Constant
Bit rate : 192 kb/s
Channel(s) : 2 channels
Channel positions : Front: L R
Sampling rate : 48.0 kHz
Frame rate : 31.250 FPS (1536 SPF)
Bit depth : 16 bits
Compression mode : Lossy
Stream size : 117 MiB (2%)
Title : Синема УС (MVO)
Language : Russian
Service kind : Complete Main
Default : Yes
Forced : No

Audio #2
ID : 3
Format : E-AC-3
Format/Info : Enhanced Audio Coding 3
Format settings, Endianness : Big
Codec ID : A_EAC3
Duration : 1 h 25 min
Bit rate mode : Constant
Bit rate : 224 kb/s
Channel(s) : 2 channels
Channel positions : Front: L R
Sampling rate : 48.0 kHz
Frame rate : 187.500 FPS (256 SPF)
Compression mode : Lossy
Stream size : 136 MiB (2%)
Title : Original
Language : English
Service kind : Complete Main
Default : No
Forced : No

Text #1
ID : 4
Format : UTF-8
Codec ID : S_TEXT/UTF8
Codec ID/Info : UTF-8 Plain Text
Duration : 1 h 20 min
Bit rate : 66 b/s
Count of elements : 1515
Stream size : 39.4 KiB (0%)
Language : English
Default : No
Forced : No

Text #2
ID : 5
Format : UTF-8
Codec ID : S_TEXT/UTF8
Codec ID/Info : UTF-8 Plain Text
Duration : 1 h 24 min
Bit rate : 70 b/s
Count of elements : 1829
Stream size : 43.8 KiB (0%)
Title : SDH
Language : English
Default : No
Forced : No

pb.wtf



Скачать Чужие против девочек из колледжа через торрент http://b.radikal.ru/b10/1901/a1/4bbeb9b7a1a1.png Скачать фильм Чужие против девочек из колледжа через торрент бесплантно в хорошем качестве Описание: Экипаж круизного космического корабля «TITAN 1C» столкнулся с астероидом и потерпел крушение во время своего первого полёта. ... 8.1 10 7
Торрент: Зарегистрирован [2019-01-03 11:14] · скачан: 133 раз
Статус: T временная
Размер: 6.31 GB
Как cкачать? Как скачать Чужие против девочек из колледжа через торрент | qTorrent

28-11-2019 20:33  

Отключить всю рекламу на сайте

03-01-2019 11:28 Чужие против девочек из колледжа Скачать торрент  

сначала подумал, что это порноpb.wtf



03-01-2019 12:02 Чужие против девочек из колледжа Скачать торрент  

Ro-neF писал(а):

сначала подумал, что это порно

+1pb.wtf



03-01-2019 13:25 Чужие против девочек из колледжа Скачать торрент  

Ниже рейтинга IMDb я еще не видел pb.wtf



03-01-2019 17:32 Чужие против девочек из колледжа Скачать торрент  

Щас заценим! один фиг смотреть нечего

p.s. посмотрел... те кто разочарованы что это не порево - быстро качать и смотресть
Это оскар 2019 однозначно.

Я многое видел на этом сайте, но такоего... мой мир никогда не будет прежним. Смотреть всем однозначно на прощелкивание 0,5-1 минут )))pb.wtf



03-01-2019 17:34 Чужие против девочек из колледжа Скачать торрент  

Впервые вижу пороно без сцен проно, видимо по этому такой низкий рейтинг. pb.wtf



03-01-2019 18:58 Чужие против девочек из колледжа Скачать торрент  

Сиськэ на первом скрине - это цензурное порно? ))))pb.wtf



03-01-2019 22:44 Чужие против девочек из колледжа Скачать торрент  

Ой не могу что за фейс палмpb.wtf



04-01-2019 06:59 Чужие против девочек из колледжа Скачать торрент  

трейлер посмотрел и понял что это шедевр....порноактеры решили снять трешак:)))) смотрите не пожалеете-трейлер..фильм не стоит:)pb.wtf



04-01-2019 11:35 Чужие против девочек из колледжа Скачать торрент  

grinpis66 писал(а):

трейлер посмотрел и понял что это шедевр....порноактеры решили снять трешак:)))) смотрите не пожалеете-трейлер..фильм не стоит:)

pb.wtf



04-01-2019 15:01 Чужие против девочек из колледжа Скачать торрент  

Ro-neF писал(а):

сначала подумал, что это порно

+1pb.wtf



04-01-2019 15:30 Чужие против девочек из колледжа Скачать торрент  

Посмотрел! Да я сделал это!!! Концовка огонь! Фильм для думающих...pb.wtf



05-01-2019 05:46 Чужие против девочек из колледжа Скачать торрент  

всё качаю pb.wtf



05-01-2019 06:09 Чужие против девочек из колледжа Скачать торрент  

Ro-neF, + pb.wtf



    Дорогой пользователь! Огромная просьба, поблагодарите релизера, оцените раздачу и оставьте свои комментарий, если Вы скачали Чужие против девочек из колледжа через торрент бесплатно! Внесите свою лепту в развитие PiratBit!
    Комментировать посты могут только пользователи прошедшие не сложную регистрацию
    Показать сообщения:    

    Чужие против девочек из колледжа через торрент
    Скачать бесплатно Чужие против девочек из колледжа
    Чужие против девочек из колледжа скачать торрент
    Чужие против девочек из колледжа смотреть онлайн
    Cкачать фильм Чужие против девочек из колледжа бесплатно
    Чужие против девочек из колледжа скачать торрент в хорошем качестве
    Чужие против девочек из колледжа смотреть онлайн бесплатно в хорошем качестве


    Вы не можете начинать темы
    Вы не можете отвечать на сообщения
    Вы не можете редактировать свои сообщения
    Вы не можете удалять свои сообщения
    Вы не можете голосовать в опросах
    Вы не можете прикреплять файлы к сообщениям
    Вы можете скачивать файлы