Всегда рабочее зеркало без VPN и Proxy просто перед .vidak.icu напиши любое слово или цифру, Пример http://42cv.vidak.icu

MVO

2 сезон

2 сезон

1

1 сезон

iTunes

2 сезон

13

1 сезон

Распродажа

pack

Рекомендуем

Пиратка

30

ВАЖНО

RePack

MK11

RePack

jed

RePack

fifa19

RePack

RDR2

RePack

NEED FOR SPEED™ PAYBACK

Кинопоиск HD

6 сезон

 Острые козырьки 6 сезон

Все сериалы

все сериалы на PB.wtf

RePack

FAR CRY 5

Anonymous, нам критически не хватает 5601 руб. на оплату серверов и переферии за Апрель, помоги нам пожалуйста, вся надежда только на тебя. В благодарность мы отключим тебе всю рекламу на сайте!

×
  
Magnet ссылка

Будто во сне / State Like Sleep (Мередит Данлак) [2018, драма, триллер, детектив, WEB-DLRip-AVC] MVO [HDRezka Studio] pb.wtf

Будто во сне через торрент pb.wtf

Размер: 1.49 GB | Добавлен: 2 года 8 мес. назад | Торрент скачан:83 раза
Смотреть онлайн Будто во сне | Скачать    Ребята, помогите собрать деньги на оплату серверов!!!

03-01-2019 14:50 Будто во сне Скачать торрент  

Будто во сне / State Like Sleep
Год выпуска: 2018
Страна: США
Жанр: драма, триллер, детектив
Продолжительность: 01:44:45
Перевод: Профессиональный (многоголосый) | HDRezka Studio
Субтитры: Английские (SDH)

Режиссер: Мередит Данлак

rating

В ролях: Кэтрин Уотерстон, Михиль Хаусман, Майкл Шеннон, Люк Эванс, Мэри Кэй Плэйс, Марк О'Брайэн, Рэйчел Уилсон, Тесса Мосси, Карло Рота, Бо Мартин

Описание: Безутешная вдова Кэтрин узнает о тайной жизни своего знаменитого мужа, покончившего с собой. Для того, чтобы пролить свет на обстоятельства его смерти, она отправляется в секретный секс-клуб, который пользуется популярностью у мужчин высшего света, и начинает расследование.

Качество: WEB-DLRip-AVC
Формат: MKV

Видео: 1024x436 (2.35:1), 23,976 fps, x264 ~1 845 kbps avg, 0.172 bit/pixel
Аудио: 48 kHz, AC3 Dolby Digital, 2 (L,R) ch, ~192.00 kbps avg | RUS (HDRezka Studio)
скриншот  скриншот  скриншот  скриншот  

Общее
Уникальный идентификатор : 212475031047155666724103724759075583728 (0x9FD933D54271CC32AEAD5D33D12CF6F0)
Полное имя : F:\OlLanDGroup\State.Like.Sleep.2018.WEB-DLRip(AVC).OlLanDGroup.mkv
Формат : Matroska
Версия формата : Version 4 / Version 2
Размер файла : 1,49 Гбайт
Продолжительность : 1 ч. 44 м.
Общий поток : 2036 Кбит/сек
Название фильма : State Like Sleep 2018 #TorpedoUK#
Дата кодирования : UTC 2019-09-11 09:43:18
Программа кодирования : mkvmerge v29.0.0 ('Like It Or Not') 64-bit
Библиотека кодирования : libebml v1.3.6 + libmatroska v1.4.9

Видео
Идентификатор : 1
Формат : AVC
Формат/Информация : Advanced Video Codec
Профиль формата : High@L4.1
Параметр CABAC формата : Да
Параметр ReFrames формата : 10 кадров
Идентификатор кодека : V_MPEG4/ISO/AVC
Продолжительность : 1 ч. 44 м.
Битрейт : 1845 Кбит/сек
Ширина : 1024 пикселя
Высота : 436 пикселей
Соотношение сторон : 2,35:1
Режим частоты кадров : Постоянный
Частота кадров : 23,976 (24000/1001) кадра/сек
Цветовое пространство : YUV
Субдискретизация насыщенности : 4:2:0
Битовая глубина : 8 бит
Тип развёртки : Прогрессивная
Бит/(Пиксели*Кадры) : 0.172
Размер потока : 1,35 Гбайт (90%)
Библиотека кодирования : x264 core 146 r2538 121396c
Настройки программы : cabac=1 / ref=10 / deblock=1:-2:-3 / analyse=0x3:0x113 / me=umh / subme=10 / psy=1 / psy_rd=0.95:0.07 / mixed_ref=1 / me_range=48 / chroma_me=1 / trellis=2 / 8x8dct=1 / cqm=0 / deadzone=21,11 / fast_pskip=1 / chroma_qp_offset=-3 / threads=6 / lookahead_threads=1 / sliced_threads=0 / nr=0 / decimate=1 / interlaced=0 / bluray_compat=0 / constrained_intra=0 / bframes=11 / b_pyramid=2 / b_adapt=2 / b_bias=0 / direct=3 / weightb=1 / open_gop=0 / weightp=2 / keyint=240 / keyint_min=23 / scenecut=40 / intra_refresh=0 / rc_lookahead=40 / rc=2pass / mbtree=0 / bitrate=1845 / ratetol=1.0 / qcomp=0.60 / qpmin=0 / qpmax=69 / qpstep=4 / cplxblur=20.0 / qblur=0.5 / vbv_maxrate=50000 / vbv_bufsize=62500 / nal_hrd=none / filler=0 / ip_ratio=1.40 / pb_ratio=1.30 / aq=1:1.00
Язык : English
Default : Да
Forced : Нет

Аудио
Идентификатор : 2
Формат : AC-3
Формат/Информация : Audio Coding 3
Расширение режима : CM (complete main)
Параметр Endianness формата : Big
Идентификатор кодека : A_AC3
Продолжительность : 1 ч. 44 м.
Вид битрейта : Постоянный
Битрейт : 192 Кбит/сек
Каналы : 2 канала
Расположение каналов : Front: L R
Частота : 48,0 КГц
Частота кадров : 31,250 кадров/сек (1536 spf)
Битовая глубина : 16 бит
Метод сжатия : С потерями
Размер потока : 144 Мбайт (9%)
Заголовок : MVO [HDRezka Studio]
Язык : Russian
Default : Да
Forced : Нет

Текст
Идентификатор : 3
Формат : UTF-8
Идентификатор кодека : S_TEXT/UTF8
Идентификатор кодека/Информация : UTF-8 Plain Text
Продолжительность : 1 ч. 39 м.
Битрейт : 50 бит/сек
Count of elements : 1418
Размер потока : 36,6 Кбайт (0%)
Заголовок : SDH
Язык : English
Default : Нет
Forced : Нет
pb.wtf



Скачать Будто во сне через торрент https://a.radikal.ru/a43/1901/e1/9b34a6d9fe5a.jpg Скачать, смотреть онлайн Будто во сне бесплантно в хорошем качестве Описание: Безутешная вдова Кэтрин узнает о тайной жизни своего знаменитого мужа, покончившего с собой. Для того, чтобы пролить свет на ... 10 10 5
Торрент: Зарегистрирован [2019-09-11 10:23] · скачан: 83 раз
Статус: T временная
Размер: 1.49 GB
Как cкачать? Как скачать Будто во сне через торрент | UTorrent

% Раздел Тема Автор DL S | L
T Фильмы (мультфильмы) cо спонсором показа (Новинки AVI/MKV) [ 4.77 GB ] Будто во сне / State Like Sleep [2018 WEB-DL 1080p] MVO [@MUZOBOZ@] bober100 Скачать
1 | 0
T Фильмы (мультфильмы) cо спонсором показа (Новинки AVI/MKV) [ 4.25 GB ] Будто во сне / State Like Sleep [2018 WEB-DL 720p] MVO [@MUZOBOZ@] bober100 Скачать
1 | 0

28-11-2019 20:33  

Отключить всю рекламу на сайте

    Дорогой пользователь! Огромная просьба, поблагодарите релизера, оцените раздачу и оставьте свои комментарий, если Вы скачали Будто во сне через торрент бесплатно!
    Комментировать посты могут только пользователи прошедшие не сложную регистрацию
    Показать сообщения:    

    Будто во сне через торрент
    Скачать бесплатно Будто во сне
    Будто во сне скачать торрент
    Будто во сне смотреть онлайн
    Cкачать фильм Будто во сне бесплатно
    Будто во сне скачать торрент в хорошем качестве
    Будто во сне смотреть онлайн бесплатно в хорошем качестве


    Вы не можете начинать темы
    Вы не можете отвечать на сообщения
    Вы не можете редактировать свои сообщения
    Вы не можете удалять свои сообщения
    Вы не можете голосовать в опросах
    Вы не можете прикреплять файлы к сообщениям
    Вы можете скачивать файлы