Ссылка на приватное зеркало всего за 1$. Внимание количество ограничено!!!

OK

1+1

iTunes

мы

OK

1

WEB-DLRip

Джокер

Пифагор

Ведьмак / The Witcher сериал

iTunes

ПШазам

ОК

Оно 2

iTunes

30
pack

Вам бонус

ВАЖНО

!!Акция!!

Alien_RageХит недели

RePack

Resident Evil 21

ИГРА 18+

pack

RePack

jed

RePack

fifa19

RePack

Assassins Creed: Odyssey

RePack

NEED FOR SPEED™ PAYBACK

4 сезон

9 сезон

Бесстыжие 9 сезон

Все сериалы

все сериалы на PB.wtf

RePack

FAR CRY 5
  

Будто во сне / State Like Sleep (Мередит Данлак) [2018, драма, триллер, детектив, WEB-DL 720p] MVO [@MUZOBOZ@] pb.wtf

Будто во сне через торрент pb.wtf

Раздают: 1 [ 0 KB/s ]
Размер: 4.25 GB | Добавлен: 1 год назад | Торрент скачан:14 раз
Скачать  

03-01-2019 14:50 Будто во сне Скачать торрент  

Будто во сне / State Like SleepГод выпуска: 2018
Страна: США
Жанр: драма, триллер, детектив
Продолжительность: 01:47:27
Перевод: Любительский (многоголосый) | @MUZOBOZ@
Субтитры: отсутствуют

Режиссер: Мередит Данлак

rating

В ролях:

Кэтрин Уотерстон, Михиль Хаусман, Майкл Шеннон, Люк Эванс, Мэри Кэй Плэйс, Марк О'Брайэн, Рэйчел Уилсон, Тесса Мосси, Карло Рота, Бо Мартин

Описание:

Безутешная вдова Кэтрин узнает о тайной жизни своего знаменитого мужа, покончившего с собой. Для того, чтобы пролить свет на обстоятельства его смерти, она отправляется в секретный секс-клуб, который пользуется популярностью у мужчин высшего света, и начинает расследование.

Качество: WEB-DL 720p
Формат: MKV

Видео: h.264,5 271 kb/s, 1280x544
Аудио#1: Русский, (AC3, 2 ch, 384 Кбит/с)
скриншот  скриншот  скриншот  

Общее
Уникальный идентификатор : 236452053770961907274612091389242086561 (0xB1E30252DDB5B5329E4E6F577CC194A1)
Полное имя : D:\State.Like.Sleep.2018.P.WEB-DL.72Op_KOSHARA.mkv
Формат : Matroska
Версия формата : Version 2
Размер файла : 4,25 Гбайт
Продолжительность : 1 ч. 47 м.
Режим общего битрейта : Переменный
Общий поток : 5657 Кбит/сек
Дата кодирования : UTC 2019-01-02 21:13:42
Программа кодирования : mkvmerge v8.3.0 ('Over the Horizon') 64bit
Библиотека кодирования : libebml v1.3.1 + libmatroska v1.4.2

Видео
Идентификатор : 1
Формат : AVC
Формат/Информация : Advanced Video Codec
Профиль формата : High@L4.1
Параметр CABAC формата : Да
Параметр RefFrames формата : 4 кадра
Идентификатор кодека : V_MPEG4/ISO/AVC
Продолжительность : 1 ч. 47 м.
Вид битрейта : Переменный
Битрейт : 5271 Кбит/сек
Максимальный битрейт : 6000 Кбит/сек
Ширина : 1280 пикселей
Высота : 544 пикселя
Соотношение сторон : 2,35:1
Режим частоты кадров : Постоянный
Частота кадров : 23,976 (24000/1001) кадра/сек
Стандарт вещания : Component
Цветовое пространство : YUV
Субдискретизация насыщенности : 4:2:0
Битовая глубина : 8 бит
Тип развёртки : Прогрессивная
Бит/(Пиксели*Кадры) : 0.309
Размер потока : 3,87 Гбайт (91%)
Default : Да
Forced : Нет
Цветовой диапазон : Limited
Основные цвета : BT.709
Характеристики трансфера : BT.709
Коэффициенты матрицы : BT.709

Аудио
Идентификатор : 2
Формат : AC-3
Формат/Информация : Audio Coding 3
Расширение режима : CM (complete main)
Параметр Endianness формата : Big
Идентификатор кодека : A_AC3
Продолжительность : 1 ч. 47 м.
Вид битрейта : Постоянный
Битрейт : 384 Кбит/сек
Каналы : 2 канала
Расположение каналов : Front: L R
Частота : 48,0 КГц
Частота кадров : 31,250 кадров/сек (1536 spf)
Метод сжатия : С потерями
Размер потока : 295 Мбайт (7%)
Default : Да
Forced : Нет

pb.wtf



Скачать Будто во сне через торрент https://a.radikal.ru/a43/1901/e1/9b34a6d9fe5a.jpg Скачать фильм Будто во сне через торрент бесплантно в хорошем качестве Описание: Безутешная вдова Кэтрин узнает о тайной жизни своего знаменитого мужа, покончившего с собой. Для того, чтобы пролить свет на ... 10 10 3
Торрент: Зарегистрирован [2019-01-03 14:50] · скачан: 14 раз
Статус: T временная
Размер: 4.25 GB
Как cкачать? Как скачать Будто во сне через торрент | qTorrent

% Раздел Тема Автор DL S | L
T Фильмы (мультфильмы) cо спонсором показа (Новинки AVI/MKV) [ 4.77 GB ] Будто во сне / State Like Sleep [2018 WEB-DL 1080p] MVO [@MUZOBOZ@] bober100 Скачать
1 | 0
T Фильмы 2018 [DVDrip, WEB-DLRip, HDrip] (DUB, MVO) [ 1.49 GB ] Будто во сне / State Like Sleep [2018 WEB-DLRip-AVC] MVO [HDRezka Studio] bober100 Скачать
3 | 0

28-11-2019 20:33  

Отключить всю рекламу на сайте

    Дорогой пользователь! Огромная просьба, поблагодарите релизера, оцените раздачу и оставьте свои комментарий, если Вы скачали Будто во сне через торрент бесплатно! Внесите свою лепту в развитие PiratBit!
    Комментировать посты могут только пользователи прошедшие не сложную регистрацию
    Показать сообщения:    

    Будто во сне через торрент
    Скачать бесплатно Будто во сне
    Будто во сне скачать торрент
    Будто во сне смотреть онлайн
    Cкачать фильм Будто во сне бесплатно
    Будто во сне скачать торрент в хорошем качестве
    Будто во сне смотреть онлайн бесплатно в хорошем качестве


    Вы не можете начинать темы
    Вы не можете отвечать на сообщения
    Вы не можете редактировать свои сообщения
    Вы не можете удалять свои сообщения
    Вы не можете голосовать в опросах
    Вы не можете прикреплять файлы к сообщениям
    Вы можете скачивать файлы