Ссылка на приватное зеркало всего за 1$. Внимание количество ограничено!!!

OK

1+1

iTunes

мы

OK

1

WEB-DLRip

Джокер

Пифагор

Ведьмак / The Witcher сериал

Лицензия

ПШазам

ОК

Оно 2

iTunes

30
pack

Вам бонус

ВАЖНО

!!Акция!!

Alien_RageХит недели

RePack

Resident Evil 21

ИГРА 18+

pack

RePack

jed

!!Акция!!

Alien_Rage

RePack

fifa19

RePack

Assassins Creed: Odyssey

RePack

NEED FOR SPEED™ PAYBACK

4 сезон

9 сезон

Бесстыжие 9 сезон

Все сериалы

все сериалы на PB.wtf

RePack

FAR CRY 5
  

Падший священник / Sinister Minister (Хосе Монтесинос) [2017, триллер, драма, HDTVRip 720p] MVO ["Синема УС"] pb.wtf

Падший священник через торрент pb.wtf

Размер: 2.86 GB | Добавлен: 1 год назад | Торрент скачан:33 раза
Скачать  

03-01-2019 15:22 Падший священник Скачать торрент  

Падший священник / Sinister MinisterГод выпуска: 2017
Страна: США
Жанр: триллер, драма
Продолжительность: 01:24:26
Перевод: Любительский (многоголосый) | "Синема УС"
Субтитры: отсутствуют

Режиссер: Хосе Монтесинос

rating

В ролях:

Ники Ховард, Райан Патрик, Анджелика Брионес, Лиз Феннинг, Рэйчел Дж. Уиттл, Софи Томас, Джон Бридделл, Брэндон Джордж

Описание:

Серийный убийца маскируется под проповедника, чтобы охотиться на женщин. Его последняя жена, возможно, покончила с собой, а его нынешняя жена больна. Триш и ее дочь переехали в другой город и находятся под угрозой стать его следующей жертвой.

Качество: HDTVRip 720p
Формат: MKV

Видео: h.264,4 456 kb/s, 1280x720
Аудио#1: Русский, (AC3, 2 ch, 384 Кбит/с)
скриншот  скриншот  скриншот  

Общее
Уникальный идентификатор : 173197660272583819497977030538195460372 (0x824CA7F1096311EAB0E09D376DDD6114)
Полное имя : D:\sinister.minister.2017.P.HDTV.72Op_KOSHARA.mkv
Формат : Matroska
Версия формата : Version 2
Размер файла : 2,86 Гбайт
Продолжительность : 1 ч. 24 м.
Режим общего битрейта : Переменный
Общий поток : 4841 Кбит/сек
Дата кодирования : UTC 2019-01-02 20:46:14
Программа кодирования : mkvmerge v8.3.0 ('Over the Horizon') 64bit
Библиотека кодирования : libebml v1.3.1 + libmatroska v1.4.2

Видео
Идентификатор : 1
Формат : AVC
Формат/Информация : Advanced Video Codec
Профиль формата : High@L4.1
Параметр CABAC формата : Да
Параметр RefFrames формата : 4 кадра
Идентификатор кодека : V_MPEG4/ISO/AVC
Продолжительность : 1 ч. 24 м.
Вид битрейта : Переменный
Битрейт : 4458 Кбит/сек
Максимальный битрейт : 5000 Кбит/сек
Ширина : 1280 пикселей
Высота : 720 пикселей
Соотношение сторон : 16:9
Режим частоты кадров : Постоянный
Частота кадров : 23,976 (24000/1001) кадра/сек
Стандарт вещания : Component
Цветовое пространство : YUV
Субдискретизация насыщенности : 4:2:0
Битовая глубина : 8 бит
Тип развёртки : Прогрессивная
Бит/(Пиксели*Кадры) : 0.197
Размер потока : 2,57 Гбайт (90%)
Default : Да
Forced : Нет
Цветовой диапазон : Limited
Основные цвета : BT.709
Характеристики трансфера : BT.709
Коэффициенты матрицы : BT.709

Аудио
Идентификатор : 2
Формат : AC-3
Формат/Информация : Audio Coding 3
Расширение режима : CM (complete main)
Параметр Endianness формата : Big
Идентификатор кодека : A_AC3
Продолжительность : 1 ч. 24 м.
Вид битрейта : Постоянный
Битрейт : 384 Кбит/сек
Каналы : 2 канала
Расположение каналов : Front: L R
Частота : 48,0 КГц
Частота кадров : 31,250 кадров/сек (1536 spf)
Метод сжатия : С потерями
Размер потока : 232 Мбайт (8%)
Default : Да
Forced : Нет

pb.wtf



Скачать Падший священник через торрент https://d.radikal.ru/d14/1901/5e/6533ec9800f6.jpg Скачать фильм Падший священник через торрент бесплантно в хорошем качестве Описание: Серийный убийца маскируется под проповедника, чтобы охотиться на женщин. Его последняя жена, возможно, покончила с собой, а его ... 10 10 4
Торрент: Зарегистрирован [2019-01-03 15:22] · скачан: 33 раз
Статус: T временная
Размер: 2.86 GB
Как cкачать? Как скачать Падший священник через торрент | qTorrent

% Раздел Тема Автор DL S | L
T Фильмы (мультфильмы) cо спонсором показа (Новинки AVI/MKV) [ 1.37 GB ] Падший священник / Sinister Minister [2017 HDTVRip] MVO ["Синема УС"] bober100 Скачать
1 | 0

28-11-2019 20:33  

Отключить всю рекламу на сайте

    Дорогой пользователь! Огромная просьба, поблагодарите релизера, оцените раздачу и оставьте свои комментарий, если Вы скачали Падший священник через торрент бесплатно! Внесите свою лепту в развитие PiratBit!
    Комментировать посты могут только пользователи прошедшие не сложную регистрацию
    Показать сообщения:    

    Падший священник через торрент
    Скачать бесплатно Падший священник
    Падший священник скачать торрент
    Падший священник смотреть онлайн
    Cкачать фильм Падший священник бесплатно
    Падший священник скачать торрент в хорошем качестве
    Падший священник смотреть онлайн бесплатно в хорошем качестве


    Вы не можете начинать темы
    Вы не можете отвечать на сообщения
    Вы не можете редактировать свои сообщения
    Вы не можете удалять свои сообщения
    Вы не можете голосовать в опросах
    Вы не можете прикреплять файлы к сообщениям
    Вы можете скачивать файлы