Ссылка на приватное зеркало нашего сайта всего за 1$. Внимание количество ограничено!!!

2 сезон

iTunes

1 сезон

1

2 сезон

2 сезон

iTunes

1 сезон

RePack

30

Ultimate

ВАЖНО

ИГРА 18+

pack

RePack

MK11
pack

Забери бонус

RePack

jed

!!Акция!!

Alien_Rage

RePack

fifa19

RePack

Assassins Creed: Odyssey

RePack

NEED FOR SPEED™ PAYBACK

4 сезон

9 сезон

Бесстыжие 9 сезон

Все сериалы

все сериалы на PB.wtf

RePack

FAR CRY 5
  

Лиллехаммер / Lilyhammer / Сезоны: 1-3 / Серии: 1-24 из 24 (Симен Алсвик, Лиза Мари Гамлем) [2012-2014, Драма, криминал, комедия, HDRip] [MVO] (Amedia) pb.wtf

Лиллехаммер через торрент pb.wtf

Раздают: 1 [ 0.1 KB/s ]
Размер: 16.01 GB | Добавлен: 1 год 10 мес. назад | Торрент скачан:55 раз
Скачать  

03-01-2019 16:20 Лиллехаммер Скачать торрент  


Лиллехаммер | Lilyhammer

• Год выпуска: 2012-2014
• Страна: США, Норвегия
• Жанр: Драма, криминал, комедия
• Продолжительность: ~ 00:45:00
• Перевод: Профессиональный (многоголосый закадровый) | АРК-ТВ по заказу Amedia
• Режиссёр: Симен Алсвик, Лиза Мари Гамлем
• В ролях: Стив Ван Зандт, Тронд Фёуса Аурвог, Мариан Саастад Оттесен, Стайнар Саген, Фридтьов Сохейм, Свен Нордин, Эни Кригсволл, Михаель Акхнес-Персон, Карре Хеллум, Томми Карлсен и др.
• Описание: Тальяно сдал своего босса федералам, и теперь, в рамках программы по защите свидетелей, он переезжает в Лиллехаммер, небольшой норвежский городок, когда-то приютивший зимние олимпийские игры. Сам Фрэнк называет его Лилихэммером, отсюда и название сериала. Фрэнк мечтает о рае с «чистым воздухом, белым снегом и клевыми телками», вдали от соблазнов Нью-Йорка и от карателей мафии. Реальность, конечно же, оказывается не такой, как мечты.
rating

• Качество: HDRip
• Формат: AVI
• Видео: XviD, 720x400 (16:9), 25 fps, ~1800 kbps
• Аудио #1: AC3, 48 kHz, 6 ch, 384 kbps, CBR - Rus (1-2 сезон)
• Аудио #1: AC3, 48 kHz, 2 ch, 192 kbps, CBR - Rus (3 сезон)
• Субтитры: отсутствуют
Общее
Формат : AVI
Формат/Информация : Audio Video Interleave
Размер файла : 709 Мбайт
Продолжительность : 45 м.
Общий поток : 2194 Кбит/сек
Программа кодирования : VirtualDubMod 1.5.10.3 | www.virtualdub-fr.org || (build 2550/release)
Библиотека кодирования : VirtualDubMod build 2550/release

Видео
Идентификатор : 0
Формат : MPEG-4 Visual
Профиль формата : Advanced Simple@L5
Параметр BVOP формата : 2
Параметр QPel формата : Нет
Параметр GMC формата : Без точки перехода
Параметр матрицы формата : Выборочная
Идентификатор кодека : XVID
Идентификатор кодека/Подсказка : XviD
Продолжительность : 45 м.
Битрейт : 1800 Кбит/сек
Ширина : 720 пикселей
Высота : 400 пикселей
Соотношение сторон : 16:9
Частота кадров : 25,000 кадров/сек
Цветовое пространство : YUV
Субдискретизация насыщенности : 4:2:0
Битовая глубина : 8 бит
Тип развёртки : Прогрессивная
Метод сжатия : С потерями
Бит/(Пиксели*Кадры) : 0.250
Размер потока : 582 Мбайт (82%)
Библиотека кодирования : XviD 73

Аудио
Идентификатор : 1
Формат : AC-3
Формат/Информация : Audio Coding 3
Расширение режима : CM (complete main)
Параметр Endianness формата : Big
Идентификатор кодека : 2000
Продолжительность : 45 м.
Вид битрейта : Постоянный
Битрейт : 384 Кбит/сек
Каналы : 6 каналов
Расположение каналов : Front: L C R, Side: L R, LFE
Частота : 48,0 КГц
Частота кадров : 31,250 кадров/сек (1536 spf)
Метод сжатия : С потерями
Размер потока : 124 Мбайт (18%)
Выравнивание : Разделение по промежуткам
Продолжительность промежутка : 40 мс. (1,00 видеокадр)
Время предзагрузки промежутка : 500 мс.
скриншот  скриншот  скриншот  
pb.wtf



Скачать Лиллехаммер через торрент http://i82.fastpic.ru/big/2016/1112/b3/49d8e891d73c6e3c804697b797b675b3.png Скачать фильм Лиллехаммер через торрент бесплантно в хорошем качестве Описание: Тальяно сдал своего босса федералам, и теперь, в рамках программы по защите свидетелей, он переезжает в Лиллехаммер, небольшой ... 10 10 1
Торрент: Зарегистрирован [2019-01-03 16:20] · скачан: 55 раз
Статус: √ проверено
Размер: 16.01 GB
Как cкачать? Как скачать Лиллехаммер через торрент | qTorrent

% Раздел Тема Автор DL S | L
Зарубежные сериалы [ 48.7 GB ] Лиллехаммер / Lilyhammer / Сезоны: 1-3 / Серии: 1-24 из 24 [2012-2014 BDRip 720p] [MVO] killermax2013 Скачать
1 | 0
Зарубежные сериалы [ 16.09 GB ] Лиллехаммер / Lilyhammer / Сезоны: 1-3 / Серии: 1-24 из 24 [2012-2014 HDRip] [AVO] killermax2013 Скачать
4 | 0

28-11-2019 20:33  

Отключить всю рекламу на сайте

03-01-2019 16:22 Лиллехаммер Скачать торрент  

"лайт" версия от Амедиаpb.wtf



    Дорогой пользователь! Огромная просьба, поблагодарите релизера, оцените раздачу и оставьте свои комментарий, если Вы скачали Лиллехаммер через торрент бесплатно! Внесите свою лепту в развитие PiratBit!
    Комментировать посты могут только пользователи прошедшие не сложную регистрацию
    Показать сообщения:    

    Лиллехаммер через торрент
    Скачать бесплатно Лиллехаммер
    Лиллехаммер скачать торрент
    Лиллехаммер смотреть онлайн
    Cкачать фильм Лиллехаммер бесплатно
    Лиллехаммер скачать торрент в хорошем качестве
    Лиллехаммер смотреть онлайн бесплатно в хорошем качестве


    Вы не можете начинать темы
    Вы не можете отвечать на сообщения
    Вы не можете редактировать свои сообщения
    Вы не можете удалять свои сообщения
    Вы не можете голосовать в опросах
    Вы не можете прикреплять файлы к сообщениям
    Вы можете скачивать файлы