Ссылка на приватное зеркало нашего сайта всего за 1$. Внимание количество ограничено!!!

2 сезон

iTunes

1 сезон

1

iTunes

iTunes

iTunes

1 сезон

RePack

30

ИГРА 18+

pack

ВАЖНО

!!Акция!!

Alien_RageХит недели

RePack

MK11
pack

Забери бонус

RePack

jed

!!Акция!!

Alien_Rage

RePack

fifa19

RePack

Assassins Creed: Odyssey

RePack

NEED FOR SPEED™ PAYBACK

4 сезон

9 сезон

Бесстыжие 9 сезон

Все сериалы

все сериалы на PB.wtf

RePack

FAR CRY 5
  

Её секрет / Серии: 1-4 из 4 (Карен Захаров) [2018, Детектив,криминал, SATRip] pb.wtf

Её секрет через торрент pb.wtf

Размер: 2.31 GB | Добавлен: 1 год 9 мес. назад | Торрент скачан:50 раз
Скачать  

03-01-2019 17:35 Её секрет Скачать торрент  

Её секретГод выпуска: 2018
Страна: Россия
Жанр: Детектив,криминал
Продолжительность: ~ 00:46:00
Субтитры: отсутствуют

Режиссер: Карен Захаров

В ролях:

Филипп Бледный, Анастасия Мытражик, Александр Наумов, Ирина Чериченко, Александра Богданова (I), Ольга Науменко, Виталий Альшанский

Описание:

Игорь - молодой перспективный юрист, делающий первые шаги по завоеванию Москвы. И удача на его стороне - его берут на работу в крупную девелоперскую компанию. Впереди блестящая карьера и счастливая жизнь с красавицей Жанной. Их роман стремительно развивается, когда Игорь вдруг понимает, что дочь главы компании по уши влюблена в него. Маша - девушка невзрачная, словно не от мира сего, полная противоположность яркой и темпераментной Жанны. Но стоит Игорю только ответить взаимностью единственной дочери олигарха, как все, о чем он мечтал, сбудется. Однако Жанну он любит по-настоящему и уже собирается сделать ей предложение. Несколько месяцев Игорь ведет мучительную двойную жизнь, прежде чем окончательно делает выбор в пользу богатой наследницы. Однако он не догадывается, что стал пешкой в чужой игре. Очень скоро жизнь преуспевающего молодого человека превратится в настоящий ад, и ему снова придется делать выбор...

Качество: SATRip
Формат: AVI

Видео: XviD ~ 1650 Кбит/с, 720x400
Аудио: MP3, 2 ch, 192 Кбит/с
скриншот   скриншот   скриншот   скриншот  

Общее
Полное имя : D:\Ee.sekret.2018.XviD.SATRip.25Kuzmich\Ee.sekret.(01.seriya.iz.04).XviD.SATRip.25Kuzmich.avi
Формат : AVI
Формат/Информация : Audio Video Interleave
Размер файла : 587 Мбайт
Продолжительность : 44 м. 20 с.
Общий поток : 1852 Кбит/сек
Программа кодирования : VirtualDubMod 1.5.10.3 | www.virtualdub-fr.org || (build 2550/release)
Библиотека кодирования : VirtualDubMod build 2550/release

Видео
Идентификатор : 0
Формат : MPEG-4 Visual
Профиль формата : Advanced Simple@L5
Параметр BVOP формата : 2
Параметр QPel формата : Нет
Параметр GMC формата : Без точки перехода
Параметр матрицы формата : Default (MPEG)
Режим смешивания : Сжатый битовый поток
Идентификатор кодека : XVID
Идентификатор кодека/Подсказка : XviD
Продолжительность : 44 м. 20 с.
Битрейт : 1650 Кбит/сек
Ширина : 720 пикселей
Высота : 400 пикселей
Соотношение сторон : 16:9
Частота кадров : 25,000 кадров/сек
Цветовое пространство : YUV
Субдискретизация насыщенности : 4:2:0
Битовая глубина : 8 бит
Тип развёртки : Прогрессивная
Метод сжатия : С потерями
Бит/(Пиксели*Кадры) : 0.229
Размер потока : 523 Мбайт (89%)
Библиотека кодирования : XviD 1.2.1 (UTC 2008-12-04)

Аудио
Идентификатор : 1
Формат : MPEG Audio
Версия формата : Version 1
Профиль формата : Layer 3
Режим : Joint stereo
Идентификатор кодека : 55
Идентификатор кодека/Подсказка : MP3
Продолжительность : 44 м. 19 с.
Вид битрейта : Постоянный
Битрейт : 192 Кбит/сек
Каналы : 2 канала
Частота : 48,0 КГц
Метод сжатия : С потерями
Размер потока : 60,9 Мбайт (10%)
Выравнивание : Соединение по промежуткам
Продолжительность промежутка : 40 мс. (1,00 видеокадр)
Время предзагрузки промежутка : 504 мс.
Библиотека кодирования : LAME3.99r
Настройки программы : -m j -V 4 -q 2 -lowpass 18.6 -b 192

pb.wtf



Скачать Её секрет через торрент https://i108.fastpic.ru/big/2019/0103/75/ab0a9b4cc6d056d3ba952adc2aaf0d75.jpg Скачать фильм Её секрет через торрент бесплантно в хорошем качестве Описание: Игорь - молодой перспективный юрист, делающий первые шаги по завоеванию Москвы. И удача на его стороне - его берут на работу в ... 10 10 4
Торрент: Зарегистрирован [2019-01-03 17:35] · скачан: 50 раз
Статус: √ проверено
Размер: 2.31 GB
Как cкачать? Как скачать Её секрет через торрент | qTorrent

% Раздел Тема Автор DL S | L
Наши сериалы [ 2.18 GB ] Её секрет / Серии: 1-4 из 4 [2018 WEB-DLRip] bober100 Скачать
1 | 0
Наши сериалы [ 2.36 GB ] Ее секрет / Серии: 1-4 из 4 [2018 SATRip-AVC] aleksan55 Скачать
1 | 0

28-11-2019 20:33  

Отключить всю рекламу на сайте

    Дорогой пользователь! Огромная просьба, поблагодарите релизера, оцените раздачу и оставьте свои комментарий, если Вы скачали Её секрет через торрент бесплатно! Внесите свою лепту в развитие PiratBit!
    Комментировать посты могут только пользователи прошедшие не сложную регистрацию
    Показать сообщения:    

    Её секрет через торрент
    Скачать бесплатно Её секрет
    Её секрет скачать торрент
    Её секрет смотреть онлайн
    Cкачать фильм Её секрет бесплатно
    Её секрет скачать торрент в хорошем качестве
    Её секрет смотреть онлайн бесплатно в хорошем качестве


    Вы не можете начинать темы
    Вы не можете отвечать на сообщения
    Вы не можете редактировать свои сообщения
    Вы не можете удалять свои сообщения
    Вы не можете голосовать в опросах
    Вы не можете прикреплять файлы к сообщениям
    Вы можете скачивать файлы