Ссылка на приватное зеркало нашего сайта всего за 1$. Внимание количество ограничено!!!

2 сезон

iTunes

iTunes

1

iTunes

iTunes

iTunes

WEBRip

iTunes

30
pack

Новость дня

ВАЖНО

!!Акция!!

Alien_RageХит недели

RePack

Horizon Zero Dawn

ИГРА 18+

pack

RePack

jed

!!Акция!!

Alien_Rage

RePack

fifa19

RePack

Assassins Creed: Odyssey

RePack

NEED FOR SPEED™ PAYBACK

4 сезон

9 сезон

Бесстыжие 9 сезон

Все сериалы

все сериалы на PB.wtf

RePack

FAR CRY 5
  

Мне по кайфу! / I Feel Good (Бенуа Делепин, Гюстав Керверн) [2018, драма, комедия, WEB-DL 720p] MVO [Официальный звук] pb.wtf

Мне по кайфу! через торрент pb.wtf

Размер: 3.94 GB | Добавлен: 1 год 8 мес. назад | Торрент скачан:184 раза
Скачать  

03-01-2019 18:58 Мне по кайфу! Скачать торрент  

Мне по кайфу! / I Feel GoodГод выпуска: 2018
Страна: Франция
Жанр: драма, комедия
Продолжительность: 01:48:11
Перевод: Профессиональный многоголосый | Официальный звук
Субтитры: отсутствуют

Режиссер: Бенуа Делепин, Гюстав Керверн

rating

В ролях:

Жан Дюжарден, Иоланда Моро, Джо Даан, Жан-Бенуа Югё, Яна Биттнерова, Эльза Фуко, Мариус Бертрам, Жоэль Сериа, Жанна Гупиль, Лу Кастель

Описание:

Жаку скоро 50, но вместо приземлённых занятий и работы от заката до рассвета (как делают все его знакомые и родные) он одержим идеей разбогатеть, причём серьёзно и по-быстрому. И его совершенно не смущает тот факт, что пока всё, что у него есть, - это кипенно-белый халат и тапочки.

Качество: WEB-DL 720p
Формат: MKV

Видео: h.264,4 832 Кбит/с, 1192x720
Аудио#1: Русский, (AC3, 2 ch, 384 Кбит/с)
скриншот  скриншот  скриншот  

Общее
Уникальный идентификатор : 218936725181126741360860125778784448086 (0xA4B5ADF3666E4BFDA96852D4025A6E56)
Полное имя : D:\I.Feel.Good.2O18.Pof.WEB-DL.72Op.mkv
Формат : Matroska
Версия формата : Version 2
Размер файла : 3,94 Гбайт
Продолжительность : 1 ч. 48 м.
Режим общего битрейта : Переменный
Общий поток : 5218 Кбит/сек
Дата кодирования : UTC 2019-01-03 17:02:46
Программа кодирования : mkvmerge v8.3.0 ('Over the Horizon') 64bit
Библиотека кодирования : libebml v1.3.1 + libmatroska v1.4.2

Видео
Идентификатор : 1
Формат : AVC
Формат/Информация : Advanced Video Codec
Профиль формата : High@L4.1
Параметр CABAC формата : Да
Параметр RefFrames формата : 4 кадра
Идентификатор кодека : V_MPEG4/ISO/AVC
Продолжительность : 1 ч. 48 м.
Вид битрейта : Переменный
Битрейт : 4832 Кбит/сек
Максимальный битрейт : 5500 Кбит/сек
Ширина : 1192 пикселя
Высота : 720 пикселей
Соотношение сторон : 5:3
Режим частоты кадров : Постоянный
Частота кадров : 23,976 (24000/1001) кадра/сек
Стандарт вещания : Component
Цветовое пространство : YUV
Субдискретизация насыщенности : 4:2:0
Битовая глубина : 8 бит
Тип развёртки : Прогрессивная
Бит/(Пиксели*Кадры) : 0.230
Размер потока : 3,57 Гбайт (91%)
Default : Да
Forced : Нет
Цветовой диапазон : Limited
Основные цвета : BT.709
Характеристики трансфера : BT.709
Коэффициенты матрицы : BT.709

Аудио
Идентификатор : 2
Формат : AC-3
Формат/Информация : Audio Coding 3
Расширение режима : CM (complete main)
Параметр Endianness формата : Big
Идентификатор кодека : A_AC3
Продолжительность : 1 ч. 48 м.
Вид битрейта : Постоянный
Битрейт : 384 Кбит/сек
Каналы : 2 канала
Расположение каналов : Front: L R
Частота : 48,0 КГц
Частота кадров : 31,250 кадров/сек (1536 spf)
Метод сжатия : С потерями
Размер потока : 297 Мбайт (7%)
Default : Да
Forced : Нет

pb.wtf



Скачать Мне по кайфу! через торрент https://d.radikal.ru/d27/1901/b9/d7e7b072a171.jpg Скачать фильм Мне по кайфу! через торрент бесплантно в хорошем качестве Описание: Жаку скоро 50, но вместо приземлённых занятий и работы от заката до рассвета (как делают все его знакомые и родные) он одержим ... 8.4 10 5
Info! Золотая раздача, скачанное не засчитывается.
Торрент: Зарегистрирован [2019-01-03 18:58] · скачан: 184 раз
Статус: T временная
Размер: 3.94 GB
Как cкачать? Как скачать Мне по кайфу! через торрент | qTorrent

% Раздел Тема Автор DL S | L
T Фильмы 2018 [DVDrip, WEB-DLRip, HDrip] (DUB, MVO) [ 2.19 GB ] Мне по кайфу! / I Feel Good [2018 HDRip] [MVO] killermax2013 Скачать
1 | 0
T Фильмы (мультфильмы) cо спонсором показа (Новинки AVI/MKV) [ 1.37 GB ] Мне по кайфу! / I Feel Good [2018 WEB-DLRip] MVO [Официальный звук] bober100 Скачать
2 | 0

28-11-2019 20:33  

Отключить всю рекламу на сайте

04-01-2019 04:49 Мне по кайфу! Скачать торрент  

это кипенно-белый халат - видимо новый цвет придумали, кстати в другой раздаче такая же ошибкаpb.wtf



13-01-2019 05:34 Мне по кайфу! Скачать торрент  

Фильм конечно нельзя назвать плохим, но и не супер, нельзя сказать, что он зауряден, но и чем-то "с ног сшибательным" он не является. В целом - умерено интересная мелодрама, всё в ней на троечку с плюсом, и один раз посмотреть можно.
PS. Это классическая мелодрама, уж не знаю почему ее назвали трагедией, да еще и коммедией - там мало смешного, а по большей части "смех скозь слёзы".pb.wtf



    Дорогой пользователь! Огромная просьба, поблагодарите релизера, оцените раздачу и оставьте свои комментарий, если Вы скачали Мне по кайфу! через торрент бесплатно! Внесите свою лепту в развитие PiratBit!
    Комментировать посты могут только пользователи прошедшие не сложную регистрацию
    Показать сообщения:    

    Мне по кайфу! через торрент
    Скачать бесплатно Мне по кайфу!
    Мне по кайфу! скачать торрент
    Мне по кайфу! смотреть онлайн
    Cкачать фильм Мне по кайфу! бесплатно
    Мне по кайфу! скачать торрент в хорошем качестве
    Мне по кайфу! смотреть онлайн бесплатно в хорошем качестве


    Вы не можете начинать темы
    Вы не можете отвечать на сообщения
    Вы не можете редактировать свои сообщения
    Вы не можете удалять свои сообщения
    Вы не можете голосовать в опросах
    Вы не можете прикреплять файлы к сообщениям
    Вы можете скачивать файлы