Ссылка на приватное зеркало нашего сайта всего за 1$. Внимание количество ограничено!!!

2 сезон

iTunes

1 сезон

1

iTunes

iTunes

iTunes

1 сезон

RePack

30

ИГРА 18+

pack

ВАЖНО

!!Акция!!

Alien_RageХит недели

RePack

MK11
pack

Забери бонус

RePack

jed

!!Акция!!

Alien_Rage

RePack

fifa19

RePack

Assassins Creed: Odyssey

RePack

NEED FOR SPEED™ PAYBACK

4 сезон

9 сезон

Бесстыжие 9 сезон

Все сериалы

все сериалы на PB.wtf

RePack

FAR CRY 5
  

Её секрет / Серии: 1-4 из 4 (Карен Захаров) [2018, Детектив,криминал, WEB-DLRip] pb.wtf

Её секрет через торрент pb.wtf

Размер: 2.18 GB | Добавлен: 1 год 9 мес. назад | Торрент скачан:98 раз
Скачать  

03-01-2019 20:02 Её секрет Скачать торрент  

Её секретГод выпуска: 2018
Страна: Россия
Жанр: Детектив,криминал
Продолжительность: ~ 00:46:00
Субтитры: отсутствуют

Режиссер: Карен Захаров

В ролях:

Филипп Бледный, Анастасия Мытражик, Александр Наумов, Ирина Чериченко, Александра Богданова (I), Ольга Науменко, Виталий Альшанский

Описание:

Игорь - молодой перспективный юрист, делающий первые шаги по завоеванию Москвы. И удача на его стороне - его берут на работу в крупную девелоперскую компанию. Впереди блестящая карьера и счастливая жизнь с красавицей Жанной. Их роман стремительно развивается, когда Игорь вдруг понимает, что дочь главы компании по уши влюблена в него. Маша - девушка невзрачная, словно не от мира сего, полная противоположность яркой и темпераментной Жанны. Но стоит Игорю только ответить взаимностью единственной дочери олигарха, как все, о чем он мечтал, сбудется. Однако Жанну он любит по-настоящему и уже собирается сделать ей предложение. Несколько месяцев Игорь ведет мучительную двойную жизнь, прежде чем окончательно делает выбор в пользу богатой наследницы. Однако он не догадывается, что стал пешкой в чужой игре. Очень скоро жизнь преуспевающего молодого человека превратится в настоящий ад, и ему снова придется делать выбор...

Качество: WEB-DLRip
Формат: AVI

Видео: XviD build 73, 720x400 (16:9), 25.000 fps, ~ 1540 Kbps (~ 0.214 bit/pixel)
Аудио: 48.0 kHz, AC3, 2/0 ch, 192 kbps
скриншот  скриншот  скриншот  скриншот  скриншот  

General
Complete name : D:\Razdachi\Ee.Sekret.2018.WEB-DLRip.GeneralFilm\Ee.Sekret.e01.avi
Format : AVI
Format/Info : Audio Video Interleave
File size : 557 MiB
Duration : 44 min 39 s
Overall bit rate : 1 744 kb/s
Writing application : VirtualDubMod 1.5.10.3 | www.virtualdub-fr.org || (build 2550/release)
Writing library : VirtualDubMod build 2550/release

Video
ID : 0
Format : MPEG-4 Visual
Format profile : Advanced Simple@L5
Format settings, BVOP : 1
Format settings, QPel : No
Format settings, GMC : No warppoints
Format settings, Matrix : Custom
Codec ID : XVID
Codec ID/Hint : XviD
Duration : 44 min 39 s
Bit rate : 1 542 kb/s
Width : 720 pixels
Height : 400 pixels
Display aspect ratio : 16:9
Frame rate : 25.000 FPS
Color space : YUV
Chroma subsampling : 4:2:0
Bit depth : 8 bits
Scan type : Progressive
Compression mode : Lossy
Bits/(Pixel*Frame) : 0.214
Stream size : 493 MiB (88%)
Writing library : XviD 73

Audio
ID : 1
Format : AC-3
Format/Info : Audio Coding 3
Format settings, Endianness : Big
Codec ID : 2000
Duration : 44 min 39 s
Bit rate mode : Constant
Bit rate : 192 kb/s
Channel(s) : 2 channels
Channel positions : Front: L R
Sampling rate : 48.0 kHz
Frame rate : 31.250 FPS (1536 SPF)
Bit depth : 16 bits
Compression mode : Lossy
Stream size : 61.3 MiB (11%)
Alignment : Split accross interleaves
Interleave, duration : 40 ms (1.00 video frame)
Interleave, preload duratio : 500 ms
Service kind : Complete Main

pb.wtf



Скачать Её секрет через торрент https://i108.fastpic.ru/big/2019/0103/6c/4bacc9a26a0a3b138033f5e50f27096c.jpg Скачать фильм Её секрет через торрент бесплантно в хорошем качестве Описание: Игорь - молодой перспективный юрист, делающий первые шаги по завоеванию Москвы. И удача на его стороне - его берут на работу в ... 10 10 5
Торрент: Зарегистрирован [2019-01-03 20:02] · скачан: 98 раз
Статус: √ проверено
Размер: 2.18 GB
Как cкачать? Как скачать Её секрет через торрент | qTorrent

% Раздел Тема Автор DL S | L
Наши сериалы [ 2.31 GB ] Её секрет / Серии: 1-4 из 4 [2018 SATRip] bober100 Скачать
1 | 0
Наши сериалы [ 2.36 GB ] Ее секрет / Серии: 1-4 из 4 [2018 SATRip-AVC] aleksan55 Скачать
1 | 0

28-11-2019 20:33  

Отключить всю рекламу на сайте

    Дорогой пользователь! Огромная просьба, поблагодарите релизера, оцените раздачу и оставьте свои комментарий, если Вы скачали Её секрет через торрент бесплатно! Внесите свою лепту в развитие PiratBit!
    Комментировать посты могут только пользователи прошедшие не сложную регистрацию
    Показать сообщения:    

    Её секрет через торрент
    Скачать бесплатно Её секрет
    Её секрет скачать торрент
    Её секрет смотреть онлайн
    Cкачать фильм Её секрет бесплатно
    Её секрет скачать торрент в хорошем качестве
    Её секрет смотреть онлайн бесплатно в хорошем качестве


    Вы не можете начинать темы
    Вы не можете отвечать на сообщения
    Вы не можете редактировать свои сообщения
    Вы не можете удалять свои сообщения
    Вы не можете голосовать в опросах
    Вы не можете прикреплять файлы к сообщениям
    Вы можете скачивать файлы