2 сезон

iTunes

1 сезон

1

iTunes

iTunes

iTunes

1 сезон

RePack

30

ИГРА 18+

pack

ВАЖНО

!!Акция!!

Alien_RageХит недели

RePack

MK11
pack

Забери бонус

RePack

jed

!!Акция!!

Alien_Rage

RePack

fifa19

RePack

Assassins Creed: Odyssey

RePack

NEED FOR SPEED™ PAYBACK

4 сезон

9 сезон

Бесстыжие 9 сезон

Все сериалы

все сериалы на PB.wtf

RePack

FAR CRY 5
  

Лапси / Сезон: 1 / Серии: 1-8 из 8 (Артём Аксененко) [2018, Мистика, триллер, драма, WEB-DL 1080p] pb.wtf

Лапси через торрент pb.wtf

Размер: 18 GB | Добавлен: 1 год 9 мес. назад | Торрент скачан:118 раз
Скачать  

04-01-2019 05:04 Лапси Скачать торрент  

ЛапсиГод выпуска: 2018
Страна: Россия
Жанр: Мистика, триллер, драма
Продолжительность: ~ 00:48:00
Субтитры: отсутствуют

Режиссер: Артём Аксененко



В ролях:

Мария Машкова, Даниил Воробьёв, Диана Пожарская, Антон Кузнецов, Денис Парамонов, Иван Верховых, Наталия Вдовина, Владимир Чуприков, Михаил Химичев, Максим Жегалин, Олег Дуленин, Ирина Чериченко, Алла Иванцова, Борис Хвошнянский, Максим Белбородов

Описание:

Группа ученых отправляется в Карелию, чтобы найти источник опасной эпидемии, но вместо этого они находят себя на таинственном острове Сариола, дарующем бессмертие и лишающим жизни по собственной воле.

Качество: WEB-DL 1080p
Формат: MKV

Видео: MPEG-4 AVC, ~ 6252 Кбит/с, 1920x800
Аудио: AC3, 2 ch, 192 Кбит/с
скриншот  скриншот  скриншот  скриншот  

Общее
Уникальный идентификатор : 125091883318646670774853517277427264283 (0x5E1BD204F802047C35E68E1F07CDEB1B)
Полное имя : D:\Лапси (2018) Files-x\01.Лапси. 2018.WEB-DL (1080p) .mkv
Формат : Matroska
Версия формата : Version 2
Размер файла : 2,23 Гбайт
Продолжительность : 48 м. 26 с.
Общий поток : 6578 Кбит/сек
Программа кодирования : Lavf54.63.104
Библиотека кодирования : Lavf54.63.104 / Lavf54.63.104

Видео
Идентификатор : 1
Формат : AVC
Формат/Информация : Advanced Video Codec
Профиль формата : High@L4
Параметр CABAC формата : Да
Параметр RefFrames формата : 4 кадра
Идентификатор кодека : V_MPEG4/ISO/AVC
Продолжительность : 48 м. 26 с.
Битрейт : 6255 Кбит/сек
Ширина : 1920 пикселей
Высота : 800 пикселей
Соотношение сторон : 2,40:1
Режим частоты кадров : Постоянный
Частота кадров : 23,976 кадра/сек
Цветовое пространство : YUV
Субдискретизация насыщенности : 4:2:0
Битовая глубина : 8 бит
Тип развёртки : Прогрессивная
Бит/(Пиксели*Кадры) : 0.170
Размер потока : 2,12 Гбайт (95%)
Default : Нет
Forced : Нет

Аудио
Идентификатор : 2
Формат : AC-3
Формат/Информация : Audio Coding 3
Расширение режима : CM (complete main)
Параметр Endianness формата : Big
Идентификатор кодека : A_AC3
Продолжительность : 48 м. 26 с.
Вид битрейта : Постоянный
Битрейт : 192 Кбит/сек
Каналы : 2 канала
Расположение каналов : Front: L R
Частота : 48,0 КГц
Частота кадров : 31,250 кадров/сек (1536 spf)
Метод сжатия : С потерями
Размер потока : 66,5 Мбайт (3%)
Default : Да
Forced : Нет

pb.wtf



Скачать Лапси через торрент http://neytamy.mzqxg5dqnfrs44tv.nblz.ru/big/2018/0209/92/9ea0c3e85746e28dfbab2d36bb935092.jpg Скачать фильм Лапси через торрент бесплантно в хорошем качестве Описание: Группа ученых отправляется в Карелию, чтобы найти источник опасной эпидемии, но вместо этого они находят себя на таинственном ... 10 10 5
Торрент: Зарегистрирован [2019-01-04 05:04] · скачан: 118 раз
Статус: √ проверено
Размер: 18 GB
Как cкачать? Как скачать Лапси через торрент | qTorrent

% Раздел Тема Автор DL S | L
Наши сериалы [ 5.12 GB ] Лапси / Сезон: 2 / Серии: 1-8 из 8 [2019 WEB-DLRip] bober100 Скачать
2 | 0
Наши сериалы [ 17.84 GB ] Лапси / Сезон: 2 / Серии: 1-8 из 8 [2019 WEB-DL 1080p] bober100 Скачать
1 | 0
Наши сериалы [ 8.58 GB ] Лапси / Сезон: 2 / Серии: 1-8 из 8 [2019 WEB-DL 720p] bober100 Скачать
1 | 0

28-11-2019 20:33  

Отключить всю рекламу на сайте

    Дорогой пользователь! Огромная просьба, поблагодарите релизера, оцените раздачу и оставьте свои комментарий, если Вы скачали Лапси через торрент бесплатно! Внесите свою лепту в развитие PiratBit!
    Комментировать посты могут только пользователи прошедшие не сложную регистрацию
    Показать сообщения:    

    Лапси через торрент
    Скачать бесплатно Лапси
    Лапси скачать торрент
    Лапси смотреть онлайн
    Cкачать фильм Лапси бесплатно
    Лапси скачать торрент в хорошем качестве
    Лапси смотреть онлайн бесплатно в хорошем качестве


    Вы не можете начинать темы
    Вы не можете отвечать на сообщения
    Вы не можете редактировать свои сообщения
    Вы не можете удалять свои сообщения
    Вы не можете голосовать в опросах
    Вы не можете прикреплять файлы к сообщениям
    Вы можете скачивать файлы