Достать ножи: Стеклянная луковица

MVO

Добыча

Дубляж

Уэнсдэй

1 сезон

Тор

Дубляж

13 клиническая

1 сезон

Жестокая ночь

MVO

Одни из нас

1 сезон

Deluxe

pack

Рекомендуем

30

Пиратка

ВАЖНО

ВАЖНО

Ghostwire

Пиратка

jed

RePack

nioh2

RePack

RDR2

RePack

NEED FOR SPEED™ PAYBACK

RePack

скачать торрент

Кинопоиск HD

Острые козырьки 6 сезон

6 сезон

FAR CRY 6

RePack

скачать торрент

Лицензия

скачать торрент

MVO

1

1 сезон

скачать торрент

1 сезон

скачать торрент

Лицензия

  

Проклятый путь / Road to Perdition (Сэм Мендес) [2002 г., Триллер, драма, криминал, BDRip 1080p, Дубляж+MVO+2хAVO]

Проклятый путь через торрент pb.wtf

Размер: 6.09 GB | Добавлен: 4 года назад | Торрент скачан:205 раз
Смотреть онлайн | Скачать | Поддержите нас   

04-01-2019 08:46 Проклятый путь Скачать торрент  

Проклятый путь / Road to Perdition
Год выпуска: 2002
Страна: США
Жанр: Триллер, драма, криминал
Перевод: Дублированный, профессиональный (многоголосый закадровый), авторский
Субтитры: Русские, английские

Режиссер: Сэм Мендес

rating

В ролях: Том Хэнкс, Тайлер Хэклин, Пол Ньюман, Джуд Лоу, Дэниэл Крэйг, Дженнифер Джейсон Ли, Лиам Эйкен, Киран Хайндс, Дилан Бейкер, Стэнли Туччи

Описание: Внешне вполне среднестатистический американец Майкл Салливан живёт жизнью нормального гражданина 30-х годов XX века. Он хороший отец, крепкий семьянин, ответственный работник; но одно не дает покоя его старшему сыну Майклу — куда именно отец уезжает на своей машине каждое утро и что за люди окружают его — в костюмах идеального покроя, но со странной хитрецой в глазах?
Доп. информация: -
H.265/HEVC (High Efficiency Video Coding) - это новый стандарт кодирования видео.
- Стандарт H.265/HEVC является логическим продолжением стандарта
H.264/AVC (Advanced Video Coding), и характеризуется более эффективными
алгоритмами сжатия, а также поддержкой высокого разрешения вплоть до 8K UHD
(8192x4320). Первая версия стандарта H.265 была опубликована в начале 2013 года.
- Рипы в фомате HEVC поддерживается не всеми аппаратными проигрывателями.
- Для корректного воспроизведения может потребоваться обновление ПО.
- Владельцам несовместимого железа просьба не беспокоить,
есть альтернативные релизы.
Качество: BDRip 1080p
Формат: MKV
Видео кодек: H.265
Аудио кодек: AC3
Видео: 1918x816, ~3501 Kbps
Аудио#1: DTS, 6 ch, 768 Kbps - Дублированный
Аудио#2: AC3, 6 ch, 384 Kbps - MVO
Аудио#3: AC3, 6 ch, 640 Kbps - AVO (Живов)
Аудио#4: AC3, 6 ch, 640 Kbps - AVO (Горчаков)
Аудио#5: DTS, 6 ch, 1509 Kbps - Английский


Общее
Уникальный идентификатор : 984086987728311774724994687595339959 (0xBD873C0802919A66ED3B171EE260B7)
Полное имя : F:\РАЗДАЧИ\Road to Perdition. 2002. 1080p. HEVC. 10bit.mkv
Формат : Matroska
Версия формата : Version 4 / Version 2
Размер файла : 6,09 Гбайт
Продолжительность : 1 ч. 57 м.
Общий поток : 7444 Кбит/сек
Дата кодирования : UTC 2019-01-04 08:11:15
Программа кодирования : mkvmerge v28.2.0 ('The Awakening') 64-bit
Библиотека кодирования : libebml v1.3.6 + libmatroska v1.4.9
Обложка : Yes
Attachments : cover2.jpg

Видео
Идентификатор : 1
Формат : HEVC
Формат/Информация : High Efficiency Video Coding
Профиль формата : Main [email protected]@Main
Идентификатор кодека : V_MPEGH/ISO/HEVC
Продолжительность : 1 ч. 57 м.
Битрейт : 3501 Кбит/сек
Ширина : 1918 пикселей
Высота : 816 пикселей
Соотношение сторон : 2,35:1
Режим частоты кадров : Постоянный
Частота кадров : 23,976 (24000/1001) кадра/сек
Цветовое пространство : YUV
Субдискретизация насыщенности : 4:2:0
Битовая глубина : 10 бит
Бит/(Пиксели*Кадры) : 0.093
Размер потока : 2,86 Гбайт (47%)
Библиотека кодирования : x265 2.6+37-1949157705ce:[Windows][GCC 7.3.0][64 bit] 10bit
Настройки программы : cpuid=1173503 / frame-threads=3 / numa-pools=8 / wpp / no-pmode / no-pme / no-psnr / no-ssim / log-level=2 / input-csp=1 /
input-res=1918x816 / interlace=0 / total-frames=168393 / level-idc=0 / high-tier=1 / uhd-bd=0 / ref=4 / no-allow-non-conformance / no-repeat-headers / annexb / no-aud / no-hrd /
info / hash=0 / no-temporal-layers / open-gop / min-keyint=23 / keyint=250 / gop-lookahead=0 / bframes=4 / b-adapt=2 / b-pyramid / bframe-bias=0 / rc-lookahead=25 /
lookahead-slices=4 / scenecut=40 / radl=0 / no-intra-refresh / ctu=64 / min-cu-size=8 / rect / no-amp / max-tu-size=32 / tu-inter-depth=1 / tu-intra-depth=1 / limit-tu=0 /
rdoq-level=2 / dynamic-rd=0.00 / no-ssim-rd / signhide / no-tskip / nr-intra=0 / nr-inter=0 / no-constrained-intra / strong-intra-smoothing / max-merge=3 / limit-refs=3 /
limit-modes / me=3 / subme=3 / merange=57 / temporal-mvp / weightp / no-weightb / no-analyze-src-pics / deblock=0:0 / sao / no-sao-non-deblock / rd=4 / no-early-skip / rskip /
no-fast-intra / no-tskip-fast / no-cu-lossless / no-b-intra / no-splitrd-skip / rdpenalty=0 / psy-rd=2.00 / psy-rdoq=1.00 / no-rd-refine / no-lossless / cbqpoffs=0 / crqpoffs=0 /
rc=abr / bitrate=3500 / qcomp=0.60 / qpstep=4 / stats-write=0 / stats-read=2 / cplxblur=20.0 / qblur=0.5 / ipratio=1.40 / pbratio=1.30 / aq-mode=3 / aq-strength=1.00 / cutree / zone-count=0 / no-strict-cbr / qg-size=32 / no-rc-grain / qpmax=69 / qpmin=0 / no-const-vbv / sar=0 / overscan=0 / videoformat=5 / range=0 / colorprim=2 / transfer=2 / colormatrix=2 / chromaloc=0 / display-window=0 / max-cll=0,0 / min-luma=0 / max-luma=1023 / log2-max-poc-lsb=8 / vui-timing-info / vui-hrd-info / slices=1 / no-opt-qp-pps / no-opt-ref-list-length-pps / multi-pass-opt-rps / scenecut-bias=0.05 / no-opt-cu-delta-qp / aq-motion / no-hdr / no-hdr-opt / no-dhdr10-opt / analysis-reuse-level=5 / scale-factor=0 / refine-intra=0 / refine-inter=0 / refine-mv=0 / no-limit-sao / ctu-info=0 / no-lowpass-dct / refine-mv-type=0 / copy-pic=1
Default : Да
Forced : Нет

Аудио #1
Идентификатор : 2
Формат : DTS
Формат/Информация : Digital Theater Systems
Идентификатор кодека : A_DTS
Продолжительность : 1 ч. 56 м.
Вид битрейта : Постоянный
Битрейт : 768 Кбит/сек
Каналы : 6 каналов
Расположение каналов : Front: L C R, Side: L R, LFE
Частота : 48,0 КГц
Частота кадров : 93,750 кадра/сек (512 SPF)
Битовая глубина : 24 бит
Метод сжатия : С потерями
Размер потока : 643 Мбайт (10%)
Заголовок : Дублированный (Blu-Ray)
Язык : Russian
Default : Да
Forced : Нет

Аудио #2
Идентификатор : 3
Формат : AC-3
Формат/Информация : Audio Coding 3
Идентификатор кодека : A_AC3
Продолжительность : 1 ч. 56 м.
Вид битрейта : Постоянный
Битрейт : 384 Кбит/сек
Каналы : 6 каналов
Расположение каналов : Front: L C R, Side: L R, LFE
Частота : 48,0 КГц
Частота кадров : 31,250 кадров/сек (1536 SPF)
Битовая глубина : 16 бит
Метод сжатия : С потерями
Размер потока : 321 Мбайт (5%)
Заголовок : Многоголосый закадровый
Язык : Russian
ServiceKind/String : Complete Main
Default : Нет
Forced : Нет

Аудио #3
Идентификатор : 4
Формат : AC-3
Формат/Информация : Audio Coding 3
Идентификатор кодека : A_AC3
Продолжительность : 1 ч. 56 м.
Вид битрейта : Постоянный
Битрейт : 640 Кбит/сек
Каналы : 6 каналов
Расположение каналов : Front: L C R, Side: L R, LFE
Частота : 48,0 КГц
Частота кадров : 31,250 кадров/сек (1536 SPF)
Битовая глубина : 16 бит
Метод сжатия : С потерями
Размер потока : 536 Мбайт (9%)
Заголовок : Одноголосый закадровый (Ю.Живов)
Язык : Russian
ServiceKind/String : Complete Main
Default : Нет
Forced : Нет

Аудио #4
Идентификатор : 5
Формат : AC-3
Формат/Информация : Audio Coding 3
Идентификатор кодека : A_AC3
Продолжительность : 1 ч. 56 м.
Вид битрейта : Постоянный
Битрейт : 640 Кбит/сек
Каналы : 6 каналов
Расположение каналов : Front: L C R, Side: L R, LFE
Частота : 48,0 КГц
Частота кадров : 31,250 кадров/сек (1536 SPF)
Битовая глубина : 16 бит
Метод сжатия : С потерями
Размер потока : 536 Мбайт (9%)
Заголовок : Одноголосый закадровый (В.Горчаков)
Язык : Russian
ServiceKind/String : Complete Main
Default : Нет
Forced : Нет

Аудио #5
Идентификатор : 6
Формат : DTS
Формат/Информация : Digital Theater Systems
Идентификатор кодека : A_DTS
Продолжительность : 1 ч. 56 м.
Вид битрейта : Постоянный
Битрейт : 1509 Кбит/сек
Каналы : 6 каналов
Расположение каналов : Front: L C R, Side: L R, LFE
Частота : 48,0 КГц
Частота кадров : 93,750 кадра/сек (512 SPF)
Битовая глубина : 24 бит
Метод сжатия : С потерями
Размер потока : 1,23 Гбайт (20%)
Заголовок : Оригинальный
Язык : English
Default : Нет
Forced : Нет

Текст #1
Идентификатор : 7
Формат : UTF-8
Идентификатор кодека : S_TEXT/UTF8
Идентификатор кодека/Информация : UTF-8 Plain Text
Продолжительность : 1 ч. 55 м.
Битрейт : 48 бит/сек
ElementCount : 786
Размер потока : 41,2 Кбайт (0%)
Заголовок : Russian
Язык : Russian
Default : Нет
Forced : Нет

Текст #2
Идентификатор : 8
Формат : UTF-8
Идентификатор кодека : S_TEXT/UTF8
Идентификатор кодека/Информация : UTF-8 Plain Text
Продолжительность : 1 ч. 55 м.
Битрейт : 26 бит/сек
ElementCount : 739
Размер потока : 22,3 Кбайт (0%)
Заголовок : English
Язык : English
Default : Нет
Forced : Нет

Меню
00:00:00.000 : en:Chapter 01
00:06:21.005 : en:Chapter 02
00:10:25.458 : en:Chapter 03
00:14:42.798 : en:Chapter 04
00:19:47.186 : en:Chapter 05
00:26:46.771 : en:Chapter 06
00:30:23.154 : en:Chapter 07
00:35:02.266 : en:Chapter 08
00:41:08.799 : en:Chapter 09
00:46:23.864 : en:Chapter 10
00:50:48.587 : en:Chapter 11
00:55:58.104 : en:Chapter 12
00:58:57.909 : en:Chapter 13
01:03:32.016 : en:Chapter 14
01:11:33.872 : en:Chapter 15
01:13:08.133 : en:Chapter 16
01:15:55.551 : en:Chapter 17
01:18:36.586 : en:Chapter 18
01:24:45.997 : en:Chapter 19
01:32:22.078 : en:Chapter 20
01:35:55.958 : en:Chapter 21
01:41:33.879 : en:Chapter 22
01:43:32.080 : en:Chapter 23
01:50:37.088 : en:Chapter 24




Скачать Проклятый путь через торрент http://img15.lostpic.net/2019/01/04/cbe7d17896205835cbe74cfada7f49e6.jpg Скачать, смотреть онлайн Проклятый путь бесплантно в хорошем качестве Описание: Внешне вполне среднестатистический американец Майкл Салливан живёт жизнью нормального гражданина 30-х годов XX века. Он хороший ... 8.6 10 9
Info! Золотая раздача, скачанное не засчитывается.
Торрент: Зарегистрирован [2019-01-04 08:46] · скачан: 205 раз
Статус: √ проверено
Размер: 6.09 GB
Как cкачать? Как скачать Проклятый путь через торрент | UTorrent

% Раздел Тема Автор DL S | L
Фильмы [HD 720p, 1080p] (Хороший звук DUB, MVO) [ 7.98 GB ] Проклятый путь / Road to Perdition | DUB | 1080p killermax2013 Скачать
1 | 0
Фильмы (WEB-DL 720p, 1080p) [ 13.15 GB ] Проклятый путь / Road to Perdition | DUB+MVO+5xAVO | 1080p, (Open Matte bober100 Скачать
1 | 0
Фильмы (Blu-ray, BD-Remux, HDDVD) [ 30.81 GB ] Проклятый путь / Road to Perdition | Дубляж | Проклятый путь / Road to Perdition (Сэм Мендес Assasinca Скачать
1 | 0
Фильмы 2001-2005 [ 1.46 GB ] Проклятый путь / Road to Perdition | DUB | BDRip, DUB [ лицензия sokol_ok Скачать
2 | 0
Фильмы [HD 720p, 1080p] (Хороший звук DUB, MVO) [ 9.18 GB ] Проклятый путь / Road to Perdition | | 720p diletant Скачать
1 | 0
Фильмы 2001-2005 [ 1.36 GB ] Проклятый путь / Road to Perdition | | Проклятый путь / Road to Perdition (Сэм Мендес sergei_s.75 Скачать
1 | 0

28-11-2019 20:33  


Отключить вcю реклaмy на сайте, в т.ч. и в плеере онлайн просмотра!

04-01-2019 11:21 Проклятый путь Скачать торрент  

Клёвый фильмец! Спасибо за раздачу,вечером будет кинозал!



04-01-2019 13:26 Проклятый путь Скачать торрент  

Спасиб



    Дорогой пользователь! Огромная просьба, поблагодарите релизера, оцените раздачу и оставьте свои комментарий, если Вы скачали Проклятый путь через торрент бесплатно!!
    Комментировать посты могут только пользователи прошедшие не сложную регистрацию
    Показать сообщения:    


    Проклятый путь через торрент
    Скачать бесплатно Проклятый путь
    Проклятый путь скачать торрент
    Проклятый путь смотреть онлайн
    Cкачать фильм Проклятый путь бесплатно
    Проклятый путь скачать торрент в хорошем качестве
    Проклятый путь смотреть онлайн бесплатно в хорошем качестве
    Вы не можете начинать темы
    Вы не можете отвечать на сообщения
    Вы не можете редактировать свои сообщения
    Вы не можете удалять свои сообщения
    Вы не можете голосовать в опросах
    Вы не можете прикреплять файлы к сообщениям
    Вы можете скачивать файлы
    Проклятый путь / Road to Perdition [2002 г., Триллер, драма, криминал, BDRip 1080p, Дубляж+MVO+2хAVO] смотреть онлайн, скачать торрент picoco.icu