Ребята, если до конца года каждый наш пользователь пожертвует хотя бы 10 рублей, нам хватит денег оплатить все наши расходы.

iTunes

Хэллоуин

iTunes

venom

iTunes

Вы умрете, или мы вернем вам деньги

iTunes

iTunes

Тайна дома с часами

iTunes

Ничего хорошего в отеле «Эль рояль»

1080p

Хит недели

Лицензия

Агент Джонни Инглиш 3.0

ИГРА 18+

pack

RePack

Battlefield V

RePack

Assassins Creed: Odyssey
pack

Проголосуй

Лучший релизер 2018

RePack

Darksiders 3

iTunes 4K

venom Хит недели

RePack

fifa19

!!Акция!!

Alien_RageХит недели

RePack

NEED FOR SPEED™ PAYBACK

SATRip

9 сезон

Бесстыжие 9 сезон

Все сериалы

все сериалы на PB.wtf

iTunes

Мэнди

RePack

FAR CRY 5
  

Исчезновение / The Vanishing (Кристоффер Нюхольм) [2018, Триллер, WEBRip] [DVO] (Horizon Studio)

Исчезновение через торрент

Раздают: 15 [ 0 KB/s ]
Размер: 1.21 GB | Добавлен: 13 д. назад | Торрент скачан:334 раза
Скачать  

04-01-2019 17:23 Исчезновение Скачать торрент  

Исчезновение / The Vanishing Информация о фильме

Год выпуска: 2018
Жанр: Триллер
Страна: Великобритания
Студия: G-BASE
Продолжительность: 01:47:43
Перевод: Любительский (двухголосый, закадровый) скриншот  
*Присутствует ненормативная лексика! *

Режиссер: Кристоффер Нюхольм

В ролях: Джерард Батлер, Питер Муллан, Оулавюр Дарри Оулафссон, Гэри Льюис, Сёрен Маллинг, Коннор Суинделлс, Эмма Кинг, Родерик Гилкинсон, Кен Друри, Джон Тейлор

О фильме:
Смотрители маяка Джеймс, Томас и Дональд были немногословными, крепкими и неприхотливыми ребятами. В один прекрасный день они нашли на острове клад — ящик золота, немного подумали, и решили его поделить. Они забыли известную истину — у золота всегда найдется хозяин — и это редко бывают тихие и застенчивые люди. А спустя несколько дней на острове не осталось никого…
Фильм основан на реальной истории бесследного исчезновения трех смотрителей маяка на островах Фланнан в 1900 году. Остановившиеся часы, ни следов крови, ни посиневших и разбухших трупов… Тайна исчезновения этих людей до сих пор не раскрыта…

ratingскриншот  

СЭМПЛ

Файл

Качество: WEBRip
Формат: MPEG-4
Видео: AVC, 1424 Кбит/с, 720x304
Аудио: 48 kHz, MP3, 2 ch, 192 Кбит/с
Субтитры: Нет
General
Unique ID : 246693029673759464250312331214009291719 (0xB997596B33D6962A8DEAF54C0FF253C7)
Complete name : F:\The.Vanishing.2018.WEB-DL.XviD.HORIZON.Studio.mkv
Format : Matroska
Format version : Version 4 / Version 2
File size : 1.21 GiB
Duration : 1 h 47 min
Overall bit rate : 1 617 kb/s
Encoded date : UTC 2019-01-04 16:57:37
Writing application : mkvmerge v7.3.0 ('Nouages') 32bit built on Oct 22 2014 18:44:01
Writing library : libebml v1.3.0 + libmatroska v1.4.1

Video
ID : 1
Format : MPEG-4 Visual
Format profile : Simple@L5
Format settings, BVOP : No
Format settings, QPel : No
Format settings, GMC : No warppoints
Format settings, Matrix : Default (H.263)
Codec ID : V_MS/VFW/FOURCC / XVID
Codec ID/Hint : XviD
Duration : 1 h 47 min
Bit rate : 1 393 kb/s
Width : 720 pixels
Height : 304 pixels
Display aspect ratio : 2.40:1
Original display aspect rat : 2.40:1
Frame rate mode : Constant
Frame rate : 23.976 (24000/1001) FPS
Color space : YUV
Chroma subsampling : 4:2:0
Bit depth : 8 bits
Scan type : Progressive
Compression mode : Lossy
Bits/(Pixel*Frame) : 0.265
Stream size : 1.05 GiB (86%)
Writing library : Lavc58.1.100
Default : Yes
Forced : No

Audio
ID : 2
Format : MPEG Audio
Format version : Version 1
Format profile : Layer 3
Codec ID : A_MPEG/L3
Codec ID/Hint : MP3
Duration : 1 h 47 min
Bit rate mode : Constant
Bit rate : 192 kb/s
Channel(s) : 1 channel
Sampling rate : 48.0 kHz
Compression mode : Lossy
Stream size : 148 MiB (12%)
Writing library : LAME3.98r
Encoding settings : -m m -V 4 -q 3 -lowpass 20.5 -b 192
Default : Yes
Forced : No
скриншот  скриншот  скриншот  



Скачать Исчезновение через торрент https://i108.fastpic.ru/big/2019/0104/72/b5b69441da722b7c87735edffea6fa72.jpg Скачать фильм Исчезновение через торрент бесплантно в хорошем качестве О фильме: Смотрители маяка Джеймс, Томас и Дональд были немногословными, крепкими и неприхотливыми ребятами. В один прекрасный день они ... 9.8 10 10
Торрент: Зарегистрирован [2019-01-04 17:23] · скачан: 334 раз
Статус: T временная
Размер: 1.21 GB
Как cкачать? Как скачать Исчезновение через торрент | qTorrent

% Раздел Тема Автор DL S | L
T Фильмы (WEB-DL 720p, 1080p) [ 4.02 GB ] Исчезновение / The Vanishing [2018 WEBRip 1080p] DVO [Horizon Studio] bober100 Скачать
12 | 1
Фильмы 2017 [DVDrip, WEB-DLRip, HDrip] (DUB, MVO) [ 1.41 GB ] Исчезновение Сидни Холла / The Vanishing of Sidney Hall [2017 BDRip] MVO Twi7ter Скачать
13 | 5
Фильмы 2017 [DVDrip, WEB-DLRip, HDrip] (DUB, MVO) [ 1.53 GB ] Исчезновение Сидни Холла / The Vanishing of Sidney Hall [2017 BDRip-AVC] MVO bober100 Скачать
1 | 0
Фильмы 2017 [DVDrip, WEB-DLRip, HDrip] (DUB, MVO) [ 2.13 GB ] Исчезновение Сидни Холла / The Vanishing of Sidney Hall [2017 BDRip] MVO Twi7ter Скачать
3 | 0
R.G. Resident & PiratVoice - Фильмы, Видео [ 2.05 GB ] Исчезновение Сидни Холла / The Vanishing of Sidney Hall [2017 BDRip от R.G. Resident] MVO -Lexx- Скачать
1 | 0
Фильмы [HD 720p, 1080p] (Хороший звук DUB, MVO) [ 8.75 GB ] Исчезновение Сидни Холла / The Vanishing of Sidney Hall [2017 BDRip 1080p] MVO -Lexx- Скачать
2 | 0
Фильмы 2017 [DVDrip, WEB-DLRip, HDrip] (DUB, MVO) [ 1.41 GB ] Исчезновение Сидни Холла / The Vanishing of Sidney Hall [2017 BDRip] [MVO] killermax2013 Скачать
2 | 0


Последний раз редактировалось: killermax2013 (2019-01-05 06:59), всего редактировалось 1 раз


>> Регистрируемся здесь <<






Отзывы и комментарии о схеме читаем и пишем здесь: ---> Отзывы и комментарии о схеме

Новые благодарочки в телеграм довольных пользователей:
скриншот   скриншот   скриншот   скриншот   скриншот

05-01-2019 00:49 Исчезновение Скачать торрент  

Пожалуйста скажите по каким признакам здесь Качество: WEBRip-AVC?



05-01-2019 06:58 Исчезновение Скачать торрент  

Enigma2010 писал(а):

Пожалуйста скажите по каким признакам здесь Качество: WEBRip-AVC?

а какое оно тогда по вашему просто webrip или как указать ?



    Дорогой пользователь! Огромная просьба, поблагодарите релизера, оцените раздачу и оставьте свои комментарий, если Вы скачали Исчезновение через торрент бесплатно! Внесите свою лепту в развитие PiratBit!
    Комментировать посты могут только пользователи прошедшие не сложную регистрацию
    Показать сообщения:    

    Исчезновение через торрент
    Скачать бесплатно Исчезновение
    Исчезновение скачать торрент
    Исчезновение смотреть онлайн
    Cкачать фильм Исчезновение бесплатно
    Исчезновение скачать торрент в хорошем качестве
    Исчезновение смотреть онлайн бесплатно в хорошем качестве


    Вы не можете начинать темы
    Вы не можете отвечать на сообщения
    Вы не можете редактировать свои сообщения
    Вы не можете удалять свои сообщения
    Вы не можете голосовать в опросах
    Вы не можете прикреплять файлы к сообщениям
    Вы можете скачивать файлы