2 сезон

iTunes

1 сезон

1

iTunes

iTunes

iTunes

1 сезон

RePack

30

ИГРА 18+

pack

ВАЖНО

!!Акция!!

Alien_RageХит недели

RePack

MK11
pack

Забери бонус

RePack

jed

!!Акция!!

Alien_Rage

RePack

fifa19

RePack

Assassins Creed: Odyssey

RePack

NEED FOR SPEED™ PAYBACK

4 сезон

9 сезон

Бесстыжие 9 сезон

Все сериалы

все сериалы на PB.wtf

RePack

FAR CRY 5
  

Лапси / Сезон: 2 / Серии: 1-8 из 8 (Артём Аксененко) [2019, Мистика, триллер, драма, WEB-DL 720p] pb.wtf

Лапси через торрент pb.wtf

Размер: 8.58 GB | Добавлен: 1 год 8 мес. назад | Торрент скачан:110 раз
Скачать  

04-01-2019 18:18 Лапси Скачать торрент  

Лапси
Год выпуска: 2019
Страна: Россия
Жанр: Мистика, триллер, драма
Продолжительность: ~ 00:45:00 серия
Субтитры: отсутствуют

Режиссер: Артём Аксененко



В ролях:

Мария Машкова, Даниил Воробьёв, Диана Пожарская, Антон Кузнецов, Денис Парамонов, Иван Верховых, Наталия Вдовина, Владимир Чуприков, Михаил Химичев, Максим Жегалин, Олег Дуленин, Ирина Чериченко, Алла Иванцова, Борис Хвошнянский, Максим Белбородов

Описание:

В карельской деревне обнаружен штамм нетипичного для местности заболевания — лихорадки Западного Нила. Руководитель НИИ Вирусологии отправляет на разведку эпидемиологов-вирусологов Веру Бойко и Николая Романова. Их связывает непростое прошлое, и соглашаются на совместную командировку они с трудом. В поисках источника вируса Вера и Николай обнаруживают у себя симптомы смертельно опасной болезни. Когда на странном острове Сариола она вдруг отступает, трудности только начинаются. Учёным предстоит разгадать тайну этого места, постичь непростые правила выживания среди его жителей, разобраться в своих отношениях, которые закончились много лет назад, и найти способ вернуться домой, ведь при попытке сбежать симптомы лихорадки возвращаются.

Качество: WEB-DL 720p
Формат: MKV

Видео: MPEG-4 AVC, ~ 3230 Кбит/с, 1280x720
Аудио: AC3, 2 ch, 192 Кбит/с
скриншот  скриншот  скриншот  скриншот  

Общее
Уникальный идентификатор : 222801666582941758176198031512262809000 (0xA79E0A462A79332DB8553D85764215A8)
Полное имя : D:\Лапси.(2019).WEB-DL.720p\01.Лапси. 2019.WEB-DL 720p. Files-x .mkv
Формат : Matroska
Версия формата : Version 2
Размер файла : 1,08 Гбайт
Продолжительность : 48 м. 58 с.
Общий поток : 3159 Кбит/сек
Дата кодирования : UTC 2019-01-04 11:04:49
Программа кодирования : mkvmerge v7.8.0 ('River Man') 32bit built on Apr 3 2015 12:11:22
Библиотека кодирования : libebml v1.3.1 + libmatroska v1.4.2

Видео
Идентификатор : 1
Формат : AVC
Формат/Информация : Advanced Video Codec
Профиль формата : High@L3.1
Параметр CABAC формата : Да
Параметр RefFrames формата : 4 кадра
Идентификатор кодека : V_MPEG4/ISO/AVC
Продолжительность : 48 м. 58 с.
Битрейт : 2904 Кбит/сек
Ширина : 1280 пикселей
Высота : 720 пикселей
Соотношение сторон : 16:9
Режим частоты кадров : Постоянный
Частота кадров : 23,976 (24000/1001) кадра/сек
Цветовое пространство : YUV
Субдискретизация насыщенности : 4:2:0
Битовая глубина : 8 бит
Тип развёртки : Прогрессивная
Бит/(Пиксели*Кадры) : 0.131
Размер потока : 1017 Мбайт (92%)
Default : Да
Forced : Нет

Аудио
Идентификатор : 2
Формат : AC-3
Формат/Информация : Audio Coding 3
Расширение режима : CM (complete main)
Параметр Endianness формата : Big
Идентификатор кодека : A_AC3
Продолжительность : 48 м. 58 с.
Вид битрейта : Постоянный
Битрейт : 192 Кбит/сек
Каналы : 2 канала
Расположение каналов : Front: L R
Частота : 48,0 КГц
Частота кадров : 31,250 кадров/сек (1536 spf)
Метод сжатия : С потерями
Размер потока : 67,3 Мбайт (6%)
Default : Да
Forced : Нет

Когда раздача ведётся путём добавления новых серий, при каждом добавлении создётся новый торрент. Чтобы начать докачку новой серии, пользователям необходимо сделать следующее:
(1) остановить скачивание,
(2) удалить старый торрент у себя из клиента (старые серии удалять не надо),
(3) скачать новый торрент и запустить его у себя в клиенте вместо старого, при этом указать клиенту путь в старую папку, куда и должно происходить скачивание новых серий.
Ваш клиент при этом должен произвести хеширование (проверку) старой папки (если не производит сам - помогите ему сделать это), и будет докачивать только те серии, которых у вас ещё нет. Старые серии при этом не удаляются, а продолжают раздаваться!
Eсли вы уже удалили старые серии, то предотвратить повторную закачку старых серий можно, отжав галочку в соответсвующих местах при запуске нового торрента. По возможности, желательно не удалять старые серии как можно дольше, чтобы релизёр не столько продолжал раздавать старые серии, а смог сконцентрироваться на новых.
pb.wtf



Скачать Лапси через торрент https://a.radikal.ru/a08/1901/db/2c52264563a1.jpg Скачать фильм Лапси через торрент бесплантно в хорошем качестве Описание: В карельской деревне обнаружен штамм неичного для местности заболевания — лихорадки Западного Нила. Руководитель НИИ ... 10 10 6
Торрент: Зарегистрирован [2019-02-22 11:09] · скачан: 110 раз
Статус: √ проверено
Размер: 8.58 GB
Как cкачать? Как скачать Лапси через торрент | qTorrent

% Раздел Тема Автор DL S | L
Наши сериалы [ 5.12 GB ] Лапси / Сезон: 2 / Серии: 1-8 из 8 [2019 WEB-DLRip] bober100 Скачать
2 | 0
Наши сериалы [ 17.84 GB ] Лапси / Сезон: 2 / Серии: 1-8 из 8 [2019 WEB-DL 1080p] bober100 Скачать
1 | 0

28-11-2019 20:33  

Отключить всю рекламу на сайте

    Дорогой пользователь! Огромная просьба, поблагодарите релизера, оцените раздачу и оставьте свои комментарий, если Вы скачали Лапси через торрент бесплатно! Внесите свою лепту в развитие PiratBit!
    Комментировать посты могут только пользователи прошедшие не сложную регистрацию
    Показать сообщения:    

    Лапси через торрент
    Скачать бесплатно Лапси
    Лапси скачать торрент
    Лапси смотреть онлайн
    Cкачать фильм Лапси бесплатно
    Лапси скачать торрент в хорошем качестве
    Лапси смотреть онлайн бесплатно в хорошем качестве


    Вы не можете начинать темы
    Вы не можете отвечать на сообщения
    Вы не можете редактировать свои сообщения
    Вы не можете удалять свои сообщения
    Вы не можете голосовать в опросах
    Вы не можете прикреплять файлы к сообщениям
    Вы можете скачивать файлы