новый адрес
Ссылка на приватное зеркало всего за 1$. Внимание количество ограничено!!!

iTunes

1+1

iTunes

мы

WEB-DL

1

iTunes

Чернобыль

iTunes

Ральф против интернета

Лицензия

ПШазам

Лицензия

Оно 2

Лицензия

30
pack

Вам бонус

ВАЖНО

!!Акция!!

Alien_RageХит недели

RePack

Resident Evil 21

ИГРА 18+

pack

RePack

jed

!!Акция!!

Alien_Rage

RePack

fifa19

RePack

Assassins Creed: Odyssey

RePack

NEED FOR SPEED™ PAYBACK

3 сезон

9 сезон

Бесстыжие 9 сезон

Все сериалы

все сериалы на PB.wtf

RePack

FAR CRY 5
Ребята, катастрофически не хватает 1900р. для оплаты серверов за Октябрь (всвязи с блокировками трафик упал в 3 раза), 1-2р., выручайте.
  

Веном / Venom (Рубен Фляйшер) [2018, ужасы, фантастика, боевик, триллер, BDRip-AVC] AVO [Д. Есарев] +MVO [HDRezka Studio] +DUB [Лицензия] pb.wtf

Веном через торрент pb.wtf

Размер: 2.66 GB | Добавлен: 11 мес. назад | Торрент скачан:222 раза
Скачать  

04-01-2019 18:29 Веном Скачать торрент  

Веном / Venom Год выпуска: 2018
Страна: США
Жанр: ужасы, фантастика, боевик, триллер
Продолжительность: 01:52:08
Перевод:

#1: Дублированный | Лицензия
#2: Профессиональный многоголосый | HDRezka Studio
#3: Авторский | Д. Есарев

Субтитры: Русские (форс., полные), Английские (полные, SDH)

Режиссер: Рубен Фляйшер

rating

В ролях:

Том Харди, Мишель Уильямс, Марчелла Браджио, Вуди Харрельсон, Дженни Слейт, Риз Ахмед, Мак Брандт, Рон Сепас Джонс, Мишель Ли, Мелора Уолтерс

Описание:

Что если в один прекрасный день в тебя вселяется существо-симбиот, которое наделяет тебя сверхчеловеческими способностями? Вот только Веном - симбиот совсем недобрый, и договориться с ним невозможно. Хотя нужно ли договариваться?.. Ведь в какой-то момент ты понимаешь, что быть плохим вовсе не так уж и плохо. Так даже веселее. В мире и так слишком много супергероев! Мы - Веном!

Качество: BDRip-AVC
Формат: MKV

Видео: 1024x426 (2.40:1), 23,976 fps, x264 ~1 854 kbps avg, 0.177 bit/pixel
Аудио#1: 48 kHz, AC3 Dolby Digital, 3/2 (L,C,R,l,r) + LFE ch, ~448.00 kbps avg | RUS (Лицензия)
Аудио#2: 48 kHz, AC3 Dolby Digital, 2 (L,R) ch, ~192.00 kbps avg | RUS (HDRezka Studio)
Аудио#3: 48 kHz, AC3 Dolby Digital, 3/2 (L,C,R,l,r) + LFE ch, ~448.00 kbps avg | RUS (Esarev)
Аудио#4: 48 kHz, AC3 Dolby Digital, 3/2 (L,C,R,l,r) + LFE ch, ~448.00 kbps avg | ENG
скриншот  скриншот  скриншот  скриншот  скриншот  

Общее
Уникальный идентификатор : 150289385580276417674031993279368988641 (0x7110AECC103F36364D5EFF299FE507E1)
Полное имя : F:OlLanDGroupVenom.2018.BDRip(AVC).OlLanDGroup.mkv
Формат : Matroska
Версия формата : Version 4 / Version 2
Размер файла : 2,66 Гбайт
Продолжительность : 1 ч. 52 м.
Общий поток : 3395 Кбит/сек
Название фильма : Venom.2018 #TorpedoUK#
Дата кодирования : UTC 2019-01-04 18:20:17
Программа кодирования : mkvmerge v29.0.0 ('Like It Or Not') 64-bit
Библиотека кодирования : libebml v1.3.6 + libmatroska v1.4.9
Обложка : Yes
Attachments : small_cover.jpg / small_cover_land.jpg / cover.jpg / cover_land.jpg

Видео
Идентификатор : 1
Формат : AVC
Формат/Информация : Advanced Video Codec
Профиль формата : High@L4.1
Параметр CABAC формата : Да
Параметр ReFrames формата : 10 кадров
Идентификатор кодека : V_MPEG4/ISO/AVC
Продолжительность : 1 ч. 52 м.
Битрейт : 1854 Кбит/сек
Ширина : 1024 пикселя
Высота : 426 пикселей
Соотношение сторон : 2,40:1
Режим частоты кадров : Постоянный
Частота кадров : 23,976 (24000/1001) кадра/сек
Цветовое пространство : YUV
Субдискретизация насыщенности : 4:2:0
Битовая глубина : 8 бит
Тип развёртки : Прогрессивная
Бит/(Пиксели*Кадры) : 0.177
Размер потока : 1,45 Гбайт (55%)
Библиотека кодирования : x264 core 146 r2538 121396c
Настройки программы : cabac=1 / ref=10 / deblock=1:-3:-3 / analyse=0x3:0x113 / me=umh / subme=11 / psy=1 / psy_rd=0.99:0.04 / mixed_ref=1 / me_range=48 / chroma_me=1 / trellis=2 / 8x8dct=1 / cqm=0 / deadzone=21,11 / fast_pskip=1 / chroma_qp_offset=-3 / threads=6 / lookahead_threads=1 / sliced_threads=0 / nr=0 / decimate=1 / interlaced=0 / bluray_compat=0 / constrained_intra=0 / bframes=11 / b_pyramid=2 / b_adapt=2 / b_bias=0 / direct=3 / weightb=1 / open_gop=0 / weightp=2 / keyint=240 / keyint_min=23 / scenecut=40 / intra_refresh=0 / rc_lookahead=40 / rc=2pass / mbtree=0 / bitrate=1854 / ratetol=1.0 / qcomp=0.60 / qpmin=0 / qpmax=69 / qpstep=4 / cplxblur=20.0 / qblur=0.5 / vbv_maxrate=50000 / vbv_bufsize=62500 / nal_hrd=none / filler=0 / ip_ratio=1.40 / pb_ratio=1.30 / aq=1:1.00
Язык : English
Default : Да
Forced : Нет

Аудио #1
Идентификатор : 2
Формат : AC-3
Формат/Информация : Audio Coding 3
Расширение режима : CM (complete main)
Параметр Endianness формата : Big
Идентификатор кодека : A_AC3
Продолжительность : 1 ч. 52 м.
Вид битрейта : Постоянный
Битрейт : 448 Кбит/сек
Каналы : 6 каналов
Расположение каналов : Front: L C R, Side: L R, LFE
Частота : 48,0 КГц
Частота кадров : 31,250 кадров/сек (1536 spf)
Битовая глубина : 16 бит
Метод сжатия : С потерями
Размер потока : 359 Мбайт (13%)
Заголовок : DUB [License]
Язык : Russian
Default : Да
Forced : Нет

Аудио #2
Идентификатор : 3
Формат : AC-3
Формат/Информация : Audio Coding 3
Расширение режима : CM (complete main)
Параметр Endianness формата : Big
Идентификатор кодека : A_AC3
Продолжительность : 1 ч. 52 м.
Вид битрейта : Постоянный
Битрейт : 192 Кбит/сек
Каналы : 2 канала
Расположение каналов : Front: L R
Частота : 48,0 КГц
Частота кадров : 31,250 кадров/сек (1536 spf)
Битовая глубина : 16 бит
Метод сжатия : С потерями
Размер потока : 154 Мбайт (6%)
Заголовок : MVO [HDRezka Studio]
Язык : Russian
Default : Нет
Forced : Нет

Аудио #3
Идентификатор : 4
Формат : AC-3
Формат/Информация : Audio Coding 3
Расширение режима : CM (complete main)
Параметр Endianness формата : Big
Идентификатор кодека : A_AC3
Продолжительность : 1 ч. 52 м.
Вид битрейта : Постоянный
Битрейт : 448 Кбит/сек
Каналы : 6 каналов
Расположение каналов : Front: L C R, Side: L R, LFE
Частота : 48,0 КГц
Частота кадров : 31,250 кадров/сек (1536 spf)
Битовая глубина : 16 бит
Метод сжатия : С потерями
Размер потока : 359 Мбайт (13%)
Заголовок : AVO [Esarev]
Язык : Russian
Default : Нет
Forced : Нет

Аудио #4
Идентификатор : 5
Формат : AC-3
Формат/Информация : Audio Coding 3
Расширение режима : CM (complete main)
Параметр Endianness формата : Big
Идентификатор кодека : A_AC3
Продолжительность : 1 ч. 52 м.
Вид битрейта : Постоянный
Битрейт : 448 Кбит/сек
Каналы : 6 каналов
Расположение каналов : Front: L C R, Side: L R, LFE
Частота : 48,0 КГц
Частота кадров : 31,250 кадров/сек (1536 spf)
Битовая глубина : 16 бит
Метод сжатия : С потерями
Размер потока : 359 Мбайт (13%)
Заголовок : [Original]
Язык : English
Default : Нет
Forced : Нет

Текст #1
Идентификатор : 6
Формат : UTF-8
Идентификатор кодека : S_TEXT/UTF8
Идентификатор кодека/Информация : UTF-8 Plain Text
Продолжительность : 1 ч. 49 м.
Битрейт : 0 бит/сек
Count of elements : 7
Размер потока : 209 байт (0%)
Заголовок : Forced
Язык : Russian
Default : Да
Forced : Нет

Текст #2
Идентификатор : 7
Формат : UTF-8
Идентификатор кодека : S_TEXT/UTF8
Идентификатор кодека/Информация : UTF-8 Plain Text
Продолжительность : 1 ч. 34 м.
Битрейт : 99 бит/сек
Count of elements : 1334
Размер потока : 69,4 Кбайт (0%)
Заголовок : Full
Язык : Russian
Default : Нет
Forced : Нет

Текст #3
Идентификатор : 8
Формат : UTF-8
Идентификатор кодека : S_TEXT/UTF8
Идентификатор кодека/Информация : UTF-8 Plain Text
Продолжительность : 1 ч. 49 м.
Битрейт : 57 бит/сек
Count of elements : 1474
Размер потока : 45,7 Кбайт (0%)
Заголовок : Full
Язык : English
Default : Нет
Forced : Нет

Текст #4
Идентификатор : 9
Формат : UTF-8
Идентификатор кодека : S_TEXT/UTF8
Идентификатор кодека/Информация : UTF-8 Plain Text
Продолжительность : 1 ч. 49 м.
Битрейт : 68 бит/сек
Count of elements : 1828
Размер потока : 55,2 Кбайт (0%)
Заголовок : SDH
Язык : English
Default : Нет
Forced : Нет

Меню
00:00:00.000 : en:00:00:00.000
00:04:43.200 : en:00:04:43.200
00:10:58.074 : en:00:10:58.074
00:17:34.929 : en:00:17:34.929
00:24:05.486 : en:00:24:05.486
00:32:18.812 : en:00:32:18.812
00:40:07.447 : en:00:40:07.447
00:46:51.976 : en:00:46:51.976
00:53:26.203 : en:00:53:26.203
01:00:57.070 : en:01:00:57.070
01:04:01.796 : en:01:04:01.796
01:08:36.446 : en:01:08:36.446
01:11:12.852 : en:01:11:12.852
01:14:15.743 : en:01:14:15.743
01:21:18.749 : en:01:21:18.749
01:27:15.021 : en:01:27:15.021

pb.wtf



Скачать Веном через торрент https://i106.fastpic.ru/big/2018/1212/fe/ede450888397607ddbe8fa29421020fe.jpg Скачать фильм Веном через торрент бесплантно в хорошем качестве Описание: Что если в один прекрасный день в тебя вселяется существо-симбиот, которое наделяет тебя сверхчеловеческими способностями? Вот ... 10 10 5
Торрент: Зарегистрирован [2019-01-04 18:29] · скачан: 222 раз
Статус: √ проверено
Размер: 2.66 GB
Как cкачать? Как скачать Веном через торрент | qTorrent

% Раздел Тема Автор DL S | L
Фильмы (HD 720p, 1080p) (48-60 fps) [ 3.08 GB ] Веном / Venom [2018 BDRip-HEVC 1080p 12 bit 60 FPS] - / dd2d3 Скачать
2 | 0
Фильмы [HD 720p, 1080p] (Хороший звук DUB, MVO) [ 8.6 GB ] Веном / Venom [2018 BDRip 1080p Dub Original] Tiberiumsun69 Скачать
4 | 3
3D Фильмы [ 6.18 GB ] Веном / Venom [2018 BDRip 1080p ] Анаглиф slaventi-69 Скачать
1 | 0
Фильмы 2018 [DVDrip, WEB-DLRip, HDrip] (DUB, MVO) [ 2.19 GB ] Веном / Venom [2018 BDRip] - [] Twi7ter Скачать
3 | 0
Фильмы (Blu-ray, BD-Remux, HDDVD) [ 39.23 GB ] Веном / Venom [2018 Blu-ray EUR 1080p] [2D/3D] DUB [] bober100 Скачать
1 | 0
Фильмы (HD 720p, 1080p) (48-60 fps) [ 9.12 GB ] Веном / Venom [2018 BDRip 1080p 60 fps от еnvy / NNNB] DUB | еnvy Скачать
39 | 4
3D Фильмы [ 12.45 GB ] Веном в 3Д / Venom 3D [2018 BDRip 1080p] OverUnder / Вертикальная стереопара serega768 Скачать
1 | 0

28-11-2019 20:33  

Отключить всю рекламу на сайте

    Дорогой пользователь! Огромная просьба, поблагодарите релизера, оцените раздачу и оставьте свои комментарий, если Вы скачали Веном через торрент бесплатно! Внесите свою лепту в развитие PiratBit!
    Комментировать посты могут только пользователи прошедшие не сложную регистрацию
    Показать сообщения:    

    Веном через торрент
    Скачать бесплатно Веном
    Веном скачать торрент
    Веном смотреть онлайн
    Cкачать фильм Веном бесплатно
    Веном скачать торрент в хорошем качестве
    Веном смотреть онлайн бесплатно в хорошем качестве


    Вы не можете начинать темы
    Вы не можете отвечать на сообщения
    Вы не можете редактировать свои сообщения
    Вы не можете удалять свои сообщения
    Вы не можете голосовать в опросах
    Вы не можете прикреплять файлы к сообщениям
    Вы можете скачивать файлы