2 сезон

iTunes

1 сезон

1

iTunes

iTunes

iTunes

1 сезон

RePack

30

ИГРА 18+

pack

ВАЖНО

!!Акция!!

Alien_RageХит недели

RePack

MK11
pack

Забери бонус

RePack

jed

!!Акция!!

Alien_Rage

RePack

fifa19

RePack

Assassins Creed: Odyssey

RePack

NEED FOR SPEED™ PAYBACK

4 сезон

9 сезон

Бесстыжие 9 сезон

Все сериалы

все сериалы на PB.wtf

RePack

FAR CRY 5
  

Торгсин / Сезон: 1 / Серии: 1-8 из 8 (Дмитрий Петрунь) [2017, драма, WEB-DLRip-AVC] pb.wtf

Торгсин через торрент pb.wtf

Размер: 6.68 GB | Добавлен: 1 год 9 мес. назад | Торрент скачан:80 раз
Скачать  

04-01-2019 20:54 Торгсин Скачать торрент  

Торгсин
Год выпуска: 2017
Страна: Россия
Жанр: драма
Продолжительность: ~ 00:55:00 серия
Перевод: Не требуется
Субтитры: отсутствуют

Режиссер: Дмитрий Петрунь



В ролях:

Александра Бортич, Григорий Антипенко, Александр Носик, Екатерина Климова, Роман Мадянов, Сергей Шакуров, Марина Коняшкина, Алексей Демидов, Сергей Юшкевич, Сергей Горобченко, Сергей Шаталов, Василиса Савкина, Ольга Крылова (II), Екатерина Копанова, Михаил Павлик, Алексей Ошурков

Описание:

1934 год. СССР живет ярко. Голод 1932-33 годов уже позади, вот-вот отменят карточки. Эпоха Большого террора еще не началась. А приближающуюся войну даже представить себе никто не может. Это время великих строек и больших надежд. Почти вручную строятся Днепрогэс, Уралмаш, Магнитка, Челябинский тракторный, Московский и Горьковский автозаводы. Нужно срочно закупать оборудование за границей, но где взять золото и валюту для индустриализации? Для этих целей по всей стране работают «Торгсины» — «магазины для торговли с иностранцами» — оазисы благополучия и изобилия, которых советские люди не видели с дореволюционных времен. В обмен на золото, драгоценные камни, предметы старины или валюту состоятельные советские граждане могут купить здесь деликатесные продукты питания и недоступные импортные товары. Бедные приходят за конфетами и пирожными к празднику. А «лишенцы», причисленные к буржуазному сословию и лишенные продуктовых карточек, несут в «Торгсины» последние колечки и сережки, чтобы не умереть от голода.

Качество: WEB-DLRip-AVC
Формат: MKV

Видео: 1024x576 (16:9), 25 fps, MPEG-4 AVC, ~2 000 kbps avg
Аудио: 48 KHz, AC3, 2 ch, ~192.00 kbps avg
скриншот   скриншот   скриншот  

скриншот   скриншот   скриншот  

Общее
Уникальный идентификатор : 174930172454691616966724190576627326720 (0x839A536316D6949DB2A1A78B6CE69F00)
Полное имя : D:\Torgsin.2017.WEB-DLRip(AVC).OlLanDGroup\01.Torgsin.2017.WEB-DLRip(AVC).OlLanDGroup.mkv
Формат : Matroska
Версия формата : Version 2
Размер файла : 864 Мбайт
Продолжительность : 55 м. 3 с.
Общий поток : 2193 Кбит/сек
Дата кодирования : UTC 2017-04-10 22:55:06
Программа кодирования : mkvmerge v7.8.0 ('River Man') 32bit built on Apr 3 2015 12:11:22
Библиотека кодирования : libebml v1.3.1 + libmatroska v1.4.2

Видео
Идентификатор : 1
Формат : AVC
Формат/Информация : Advanced Video Codec
Профиль формата : High@L4.1
Параметр CABAC формата : Да
Параметр RefFrames формата : 10 кадров
Идентификатор кодека : V_MPEG4/ISO/AVC
Продолжительность : 55 м. 3 с.
Битрейт : 2000 Кбит/сек
Ширина : 1024 пикселя
Высота : 576 пикселей
Соотношение сторон : 16:9
Режим частоты кадров : Постоянный
Частота кадров : 25,000 кадров/сек
Цветовое пространство : YUV
Субдискретизация насыщенности : 4:2:0
Битовая глубина : 8 бит
Тип развёртки : Прогрессивная
Бит/(Пиксели*Кадры) : 0.136
Размер потока : 771 Мбайт (89%)
Библиотека кодирования : x264 core 146 r2538 121396c
Настройки программы : cabac=1 / ref=10 / deblock=1:-3:-3 / analyse=0x3:0x133 / me=umh / subme=10 / psy=1 / psy_rd=1.00:0.07 / mixed_ref=1 / me_range=48 / chroma_me=1 / trellis=2 / 8x8dct=1 / cqm=0 / deadzone=21,11 / fast_pskip=0 / chroma_qp_offset=-3 / threads=6 / lookahead_threads=1 / sliced_threads=0 / nr=0 / decimate=0 / interlaced=0 / bluray_compat=0 / constrained_intra=0 / bframes=10 / b_pyramid=2 / b_adapt=2 / b_bias=0 / direct=3 / weightb=1 / open_gop=0 / weightp=2 / keyint=250 / keyint_min=25 / scenecut=40 / intra_refresh=0 / rc_lookahead=40 / rc=2pass / mbtree=0 / bitrate=2000 / ratetol=1.0 / qcomp=0.60 / qpmin=0 / qpmax=69 / qpstep=4 / cplxblur=20.0 / qblur=0.5 / vbv_maxrate=50000 / vbv_bufsize=62500 / nal_hrd=none / filler=0 / ip_ratio=1.40 / pb_ratio=1.30 / aq=1:1.00
Default : Да
Forced : Нет
Цветовой диапазон : Limited
Основные цвета : BT.709
Характеристики трансфера : BT.709
Коэффициенты матрицы : BT.709

Аудио
Идентификатор : 2
Формат : AC-3
Формат/Информация : Audio Coding 3
Расширение режима : CM (complete main)
Параметр Endianness формата : Big
Идентификатор кодека : A_AC3
Продолжительность : 55 м. 3 с.
Вид битрейта : Постоянный
Битрейт : 192 Кбит/сек
Каналы : 2 канала
Расположение каналов : Front: L R
Частота : 48,0 КГц
Частота кадров : 31,250 кадров/сек (1536 spf)
Метод сжатия : С потерями
Размер потока : 75,6 Мбайт (9%)
Default : Да
Forced : Нет

pb.wtf



Скачать Торгсин через торрент http://img11.lostpic.net/2017/04/10/d117b3e41fa371383fd46ac52cb9d25c.jpg Скачать фильм Торгсин через торрент бесплантно в хорошем качестве Описание: 1934 год. СССР живет ярко. Голод 1932-33 годов уже позади, вот-вот отменят карточки. Эпоха Большого террора еще не началась. А ... 8.2 10 5
Торрент: Зарегистрирован [2019-01-04 20:54] · скачан: 80 раз
Статус: √ проверено
Размер: 6.68 GB
Как cкачать? Как скачать Торгсин через торрент | qTorrent

% Раздел Тема Автор DL S | L
Наши сериалы [ 10.42 GB ] Торгсин / Сезон: 1 / Серии: 1-8 из 8 [2017 HDTVRip 720p] bober100 Скачать
1 | 0
Наши сериалы [ 23.93 GB ] Торгсин / Сезон: 1 / Серии: 1-8 из 8 [2017 HDTV 1080i] bober100 Скачать
1 | 0
Наши сериалы [ 7.03 GB ] Торгсин / Сезон: 1 / Серии: 1-8 из 8 [2017 HDTVRip] bober100 Скачать
1 | 0

28-11-2019 20:33  

Отключить всю рекламу на сайте

    Дорогой пользователь! Огромная просьба, поблагодарите релизера, оцените раздачу и оставьте свои комментарий, если Вы скачали Торгсин через торрент бесплатно! Внесите свою лепту в развитие PiratBit!
    Комментировать посты могут только пользователи прошедшие не сложную регистрацию
    Показать сообщения:    

    Торгсин через торрент
    Скачать бесплатно Торгсин
    Торгсин скачать торрент
    Торгсин смотреть онлайн
    Cкачать фильм Торгсин бесплатно
    Торгсин скачать торрент в хорошем качестве
    Торгсин смотреть онлайн бесплатно в хорошем качестве


    Вы не можете начинать темы
    Вы не можете отвечать на сообщения
    Вы не можете редактировать свои сообщения
    Вы не можете удалять свои сообщения
    Вы не можете голосовать в опросах
    Вы не можете прикреплять файлы к сообщениям
    Вы можете скачивать файлы