новый адрес
Ссылка на приватное зеркало всего за 1$. Внимание количество ограничено!!!

iTunes

1+1

iTunes

мы

iTunes

1

iTunes

Чернобыль

iTunes

Ральф против интернета

Лицензия

ПШазам

Лицензия

Оно 2

Лицензия

30
pack

Вам бонус

ВАЖНО

!!Акция!!

Alien_RageХит недели

RePack

Resident Evil 21

ИГРА 18+

pack

RePack

jed

!!Акция!!

Alien_Rage

RePack

fifa19

RePack

Assassins Creed: Odyssey

RePack

NEED FOR SPEED™ PAYBACK

3 сезон

9 сезон

Бесстыжие 9 сезон

Все сериалы

все сериалы на PB.wtf

RePack

FAR CRY 5
Ребята, катастрофически не хватает 1900р. для оплаты серверов за Октябрь (всвязи с блокировками трафик упал в 3 раза), 1-2р., выручайте.
  

Колетт / Colette (Уош Уэстмоленд) [2018, драма, биография, история, BDRip-AVC] MVO [HDRezka Studio] pb.wtf

Колетт через торрент pb.wtf

Размер: 1.91 GB | Добавлен: 11 мес. назад | Торрент скачан:69 раз
Скачать  

04-01-2019 21:55 Колетт Скачать торрент  

Колетт / Colette Год выпуска: 2018
Страна: Великобритания, США
Жанр: драма, биография, история
Продолжительность: 01:52:03
Перевод: Профессиональный (многоголосый) | HDRezka Studio
Субтитры: Английские (полные, SDH)

Режиссер: Уош Уэстмоленд

rating

В ролях:

Кира Найтли, Доминик Уэст, Элинор Томлинсон, Фиона Шоу, Денис Гоф, Аийша Харт, Ребекка Рут, Аль Уивер, Кэролайн Болтон, Роберт Пью

Описание:

Яркая и талантливая Колетт пишет гениальные произведения, которые ее муж Вилли, посредственный писатель, выдает за свои. Книги становятся бестселлерами, а богемная пара превращается в сенсацию высшего света Парижа. Но когда Вилли пытается заставить Колетт написать еще один роман, она начинает борьбу за творческую свободу, бросая вызов общественным понятиям о литературе, моде и сексуальности.

Качество: BDRip-AVC
Формат: MKV

Видео: 1024x428 (2.40:1), 23,976 fps, x264 ~1 803 kbps avg, 0.172 bit/pixel
Аудио#1: 48 kHz, AC3 Dolby Digital, 2 (L,R) ch, ~192.00 kbps avg | RUS (HDRezka Studio)
Аудио#2: 48 kHz, AC3 Dolby Digital, 3/2 (L,C,R,l,r) + LFE ch, ~448.00 kbps avg | ENG
скриншот  скриншот  скриншот  скриншот  скриншот  

Общее
Уникальный идентификатор : 32849385561490535496575531501270777094 (0x18B68FC07AD852F85E22B735466ABD06)
Полное имя : F:\OlLanDGroup\Colette.2018.BDRip(AVC).OlLanDGroup.mkv
Формат : Matroska
Версия формата : Version 4 / Version 2
Размер файла : 1,91 Гбайт
Продолжительность : 1 ч. 52 м.
Общий поток : 2440 Кбит/сек
Название фильма : Colette.2018 #TorpedoUK#
Дата кодирования : UTC 2019-01-04 14:45:07
Программа кодирования : mkvmerge v29.0.0 ('Like It Or Not') 64-bit
Библиотека кодирования : libebml v1.3.6 + libmatroska v1.4.9

Видео
Идентификатор : 1
Формат : AVC
Формат/Информация : Advanced Video Codec
Профиль формата : High@L4.1
Параметр CABAC формата : Да
Параметр ReFrames формата : 10 кадров
Идентификатор кодека : V_MPEG4/ISO/AVC
Продолжительность : 1 ч. 52 м.
Битрейт : 1803 Кбит/сек
Ширина : 1024 пикселя
Высота : 428 пикселей
Соотношение сторон : 2,40:1
Режим частоты кадров : Постоянный
Частота кадров : 23,976 (24000/1001) кадра/сек
Цветовое пространство : YUV
Субдискретизация насыщенности : 4:2:0
Битовая глубина : 8 бит
Тип развёртки : Прогрессивная
Бит/(Пиксели*Кадры) : 0.172
Размер потока : 1,41 Гбайт (74%)
Библиотека кодирования : x264 core 146 r2538 121396c
Настройки программы : cabac=1 / ref=10 / deblock=1:-3:-3 / analyse=0x3:0x113 / me=umh / subme=11 / psy=1 / psy_rd=1.00:0.03 / mixed_ref=1 / me_range=48 / chroma_me=1 / trellis=2 / 8x8dct=1 / cqm=0 / deadzone=21,11 / fast_pskip=1 / chroma_qp_offset=-3 / threads=6 / lookahead_threads=1 / sliced_threads=0 / nr=0 / decimate=1 / interlaced=0 / bluray_compat=0 / constrained_intra=0 / bframes=11 / b_pyramid=2 / b_adapt=2 / b_bias=0 / direct=3 / weightb=1 / open_gop=0 / weightp=2 / keyint=240 / keyint_min=23 / scenecut=40 / intra_refresh=0 / rc_lookahead=40 / rc=2pass / mbtree=0 / bitrate=1803 / ratetol=1.0 / qcomp=0.60 / qpmin=0 / qpmax=69 / qpstep=4 / cplxblur=20.0 / qblur=0.5 / vbv_maxrate=50000 / vbv_bufsize=62500 / nal_hrd=none / filler=0 / ip_ratio=1.40 / pb_ratio=1.30 / aq=1:1.00
Язык : English
Default : Да
Forced : Нет

Аудио #1
Идентификатор : 2
Формат : AC-3
Формат/Информация : Audio Coding 3
Расширение режима : CM (complete main)
Параметр Endianness формата : Big
Идентификатор кодека : A_AC3
Продолжительность : 1 ч. 52 м.
Вид битрейта : Постоянный
Битрейт : 192 Кбит/сек
Каналы : 2 канала
Расположение каналов : Front: L R
Частота : 48,0 КГц
Частота кадров : 31,250 кадров/сек (1536 spf)
Битовая глубина : 16 бит
Метод сжатия : С потерями
Размер потока : 154 Мбайт (8%)
Заголовок : MVO [HDRezka Studio]
Язык : Russian
Default : Да
Forced : Нет

Аудио #2
Идентификатор : 3
Формат : AC-3
Формат/Информация : Audio Coding 3
Расширение режима : CM (complete main)
Параметр Endianness формата : Big
Идентификатор кодека : A_AC3
Продолжительность : 1 ч. 52 м.
Вид битрейта : Постоянный
Битрейт : 448 Кбит/сек
Каналы : 6 каналов
Расположение каналов : Front: L C R, Side: L R, LFE
Частота : 48,0 КГц
Частота кадров : 31,250 кадров/сек (1536 spf)
Битовая глубина : 16 бит
Метод сжатия : С потерями
Размер потока : 359 Мбайт (18%)
Заголовок : [Original]
Язык : English
Default : Нет
Forced : Нет

Текст #1
Идентификатор : 4
Формат : UTF-8
Идентификатор кодека : S_TEXT/UTF8
Идентификатор кодека/Информация : UTF-8 Plain Text
Продолжительность : 1 ч. 44 м.
Битрейт : 64 бит/сек
Count of elements : 1444
Размер потока : 49,4 Кбайт (0%)
Заголовок : Full
Язык : English
Default : Нет
Forced : Нет

Текст #2
Идентификатор : 5
Формат : UTF-8
Идентификатор кодека : S_TEXT/UTF8
Идентификатор кодека/Информация : UTF-8 Plain Text
Продолжительность : 1 ч. 44 м.
Битрейт : 68 бит/сек
Count of elements : 1532
Размер потока : 52,2 Кбайт (0%)
Заголовок : SDH
Язык : English
Default : Нет
Forced : Нет

Меню
00:00:00.000 : en:Chapter 01
00:06:46.155 : en:Chapter 02
00:12:25.786 : en:Chapter 03
00:18:55.467 : en:Chapter 04
00:24:20.834 : en:Chapter 05
00:29:14.627 : en:Chapter 06
00:36:25.600 : en:Chapter 07
00:42:02.895 : en:Chapter 08
00:48:34.411 : en:Chapter 09
00:52:45.745 : en:Chapter 10
00:57:36.411 : en:Chapter 11
01:02:17.942 : en:Chapter 12
01:09:44.930 : en:Chapter 13
01:15:22.017 : en:Chapter 14
01:19:53.288 : en:Chapter 15
01:23:17.200 : en:Chapter 16
01:29:26.611 : en:Chapter 17
01:35:05.574 : en:Chapter 18
01:41:11.231 : en:Chapter 19
01:45:15.267 : en:Chapter 20

pb.wtf



Скачать Колетт через торрент https://i106.fastpic.ru/big/2019/0104/7f/6e7283aaa08f7f780144536ac454a17f.jpg Скачать фильм Колетт через торрент бесплантно в хорошем качестве Описание: Яркая и талантливая Колетт пишет гениальные произведения, которые ее муж Вилли, посредственный писатель, выдает за свои. Книги ... 10 10 2
Торрент: Зарегистрирован [2019-01-04 21:55] · скачан: 69 раз
Статус: T временная
Размер: 1.91 GB
Как cкачать? Как скачать Колетт через торрент | qTorrent

% Раздел Тема Автор DL S | L
Фильмы [HD 720p, 1080p] (Хороший звук DUB, MVO) [ 7.74 GB ] Колетт / Colette [2018 биография история BDRip 1080p] bober100 Скачать
1 | 0
Фильмы (Blu-ray, BD-Remux, HDDVD) [ 31.15 GB ] Колетт / Colette [2018 биография история BDRemux 1080p] + MVO [HDrezka Studio] sheker187 Скачать
1 | 0
Фильмы [HD 720p, 1080p] (Хороший звук DUB, MVO) [ 4.19 GB ] Колетт / Colette [2018 биография история BDRip 720p] bober100 Скачать
1 | 0
Фильмы 2018 [DVDrip, WEB-DLRip, HDrip] (DUB, MVO) [ 1.46 GB ] Колетт / Colette [2018 биография история BDRip] bober100 Скачать
3 | 0
T Фильмы 2018 [DVDrip, WEB-DLRip, HDrip] (DUB, MVO) [ 1.46 GB ] Колетт / Colette [2018 биография история BDRip] MVO [HDRezka Studio] bober100 Скачать
1 | 0
T Фильмы 2013 (Звук TS, Cam, VO, DVO) [ 1.46 GB ] Колетт / Colette [2013 Словакия Чехия военный HDRipЛюбительский [Lenape] Ворон Скачать
1 | 0
Отключить всю рекламу на сайте
    Дорогой пользователь! Огромная просьба, поблагодарите релизера, оцените раздачу и оставьте свои комментарий, если Вы скачали Колетт через торрент бесплатно! Внесите свою лепту в развитие PiratBit!
    Комментировать посты могут только пользователи прошедшие не сложную регистрацию
    Показать сообщения:    

    Колетт через торрент
    Скачать бесплатно Колетт
    Колетт скачать торрент
    Колетт смотреть онлайн
    Cкачать фильм Колетт бесплатно
    Колетт скачать торрент в хорошем качестве
    Колетт смотреть онлайн бесплатно в хорошем качестве


    Вы не можете начинать темы
    Вы не можете отвечать на сообщения
    Вы не можете редактировать свои сообщения
    Вы не можете удалять свои сообщения
    Вы не можете голосовать в опросах
    Вы не можете прикреплять файлы к сообщениям
    Вы можете скачивать файлы