Ссылка на приватное зеркало всего за 1$. Внимание количество ограничено!!!

iTunes

1+1

iTunes

мы

WEB-DL

1

iTunes

Чернобыль

iTunes

Ральф против интернета

Лицензия

ПШазам

Лицензия

Оно 2

Лицензия

30
pack

Вам бонус

ВАЖНО

!!Акция!!

Alien_RageХит недели

RePack

Resident Evil 21

ИГРА 18+

pack

RePack

jed

!!Акция!!

Alien_Rage

RePack

fifa19

RePack

Assassins Creed: Odyssey

RePack

NEED FOR SPEED™ PAYBACK

3 сезон

9 сезон

Бесстыжие 9 сезон

Все сериалы

все сериалы на PB.wtf

RePack

FAR CRY 5
Ребята, катастрофически не хватает 1900р. для оплаты серверов за Октябрь (всвязи с блокировками трафик упал в 3 раза), 1-2р., выручайте.
  

Агент Джонни Инглиш 3.0 / Johnny English Strikes Again (Дэвид Керр) [2018, боевик, комедия, приключения, BDRip-AVC] MVO [HDrezka Studio] - ExKinoRay pb.wtf

Агент Джонни Инглиш 3.0 через торрент pb.wtf

Раздают: 3 [ 0 KB/s ]
Размер: 1.77 GB | Добавлен: 11 мес. назад | Торрент скачан:1196 раз
Скачать  

05-01-2019 00:40 Агент Джонни Инглиш 3.0 Скачать торрент  

Агент Джонни Инглиш 3.0 / Johnny English Strikes Again

«Не всегда интеллект красит мужчину»

Год выпуска: 2018
Страна: Великобритания, Франция, США / Universal Pictures, Studio Canal, Working Title Films
Жанр: боевик, комедия, приключения
Продолжительность: 01:28:33
Перевод: Профессиональный (многоголосый, закадровый) HDRezka Studio
Режиссер: Дэвид Керр
В ролях: Эмма Томпсон, Ольга Куриленко, Роуэн Эткинсон, Джейк Лэси, Бен Миллер, Миранда Хеннесси, Адам Джеймс, Пиппа Беннетт-Уорнер, Ирена Тишина, Джеймс Илс

Описание:
Когда все агенты секретной службы Её Величества внезапно выходят из строя, в игру вступает запасной вариант. Образец английского стиля и любимец роковых красоток; король безвыходных ситуаций и хранитель аналоговых традиций в цифровом мире, агент Джонни Инглиш - боль и гордость британской разведки. Этому парню есть что взбалтывать, и он взболтает не по-детски.

rating

Кодек: H.264
Качество: BDRip-AVC | исх. Johnny.English.Strikes.Again.2018.COMPLETE.BLURAY-PCH |
Видео: MPEG-4 AVC, 1024x428 (1.85:1), 23.976 fps, ~1643 kbps avg, 0.156 bit/pixel
Звук 1: 48 kHz, AC3 Dolby Digital, 2/0 ch, ~384 kbps avg - Rus
Звук 2: 48 kHz, AC3 Dolby Digital, 2/0 ch, ~384 kbps avg - Ukr [Line]
Звук 3: 48 kHz, AC3 Dolby Digital, 5/1 ch, ~448 kbps avg
Субтитры: Английские
General
Unique ID : 221897484603480441380776742556710938517 (0xA6EFE6A9210AFA92BB7B8285C0BF2795)
Complete name : D:Johnny.English.Strikes.Again.2018.BDRip.AVC.ExKinoRay.mkv
Format : Matroska
Format version : Version 2
File size : 1.77 GiB
Duration : 1 h 28 min
Overall bit rate : 2 858 kb/s
Movie name : Johnny English Strikes Again 2018 from ExkinoRay
Encoded date : UTC 2019-01-04 13:07:05
Writing application : mkvmerge v5.6.0 ('Kenya Kane') built on May 27 2012 16:44:04
Writing library : libebml v1.2.3 + libmatroska v1.3.0

Video
ID : 1
Format : AVC
Format/Info : Advanced Video Codec
Format profile : High@L4.1
Format settings, CABAC : Yes
Format settings, ReFrames : 11 frames
Codec ID : V_MPEG4/ISO/AVC
Duration : 1 h 28 min
Bit rate : 1 643 kb/s
Width : 1 024 pixels
Height : 428 pixels
Display aspect ratio : 2.40:1
Frame rate mode : Constant
Frame rate : 23.976 (23976/1000) FPS
Color space : YUV
Chroma subsampling : 4:2:0
Bit depth : 8 bits
Scan type : Progressive
Bits/(Pixel*Frame) : 0.156
Stream size : 1 004 MiB (55%)
Title : Enigma
Writing library : x264 core 152 r2851 ba24899
Encoding settings : cabac=1 / ref=11 / deblock=1:-2:-2 / analyse=0x3:0x113 / me=umh / subme=10 / psy=1 / psy_rd=1.02:0.06 / mixed_ref=1 / me_range=32 / chroma_me=1 / trellis=2 / 8x8dct=1 / cqm=0 / deadzone=21,11 / fast_pskip=0 / chroma_qp_offset=-3 / threads=12 / lookahead_threads=3 / sliced_threads=0 / nr=0 / decimate=0 / interlaced=0 / bluray_compat=0 / constrained_intra=0 / bframes=11 / b_pyramid=2 / b_adapt=2 / b_bias=0 / direct=3 / weightb=1 / open_gop=0 / weightp=2 / keyint=240 / keyint_min=23 / scenecut=40 / intra_refresh=0 / rc_lookahead=40 / rc=2pass / mbtree=0 / bitrate=1643 / ratetol=1.0 / qcomp=0.60 / qpmin=0 / qpmax=51 / qpstep=4 / cplxblur=20.0 / qblur=0.5 / vbv_maxrate=50000 / vbv_bufsize=62500 / nal_hrd=none / filler=0 / ip_ratio=1.40 / pb_ratio=1.30 / aq=2:0.90
Language : English
Default : Yes
Forced : No
Color range : Limited
Color primaries : BT.709
Transfer characteristics : BT.709
Matrix coefficients : BT.709

Audio #1
ID : 2
Format : AC-3
Format/Info : Audio Coding 3
Mode extension : CM (complete main)
Format settings, Endianness : Big
Codec ID : A_AC3
Duration : 1 h 28 min
Bit rate mode : Constant
Bit rate : 384 kb/s
Channel(s) : 2 channels
Channel positions : Front: L R
Sampling rate : 48.0 kHz
Frame rate : 31.250 FPS (1536 spf)
Compression mode : Lossy
Stream size : 243 MiB (13%)
Title : MVO
Language : Russian
Default : No
Forced : No

Audio #2
ID : 3
Format : AC-3
Format/Info : Audio Coding 3
Mode extension : CM (complete main)
Format settings, Endianness : Big
Codec ID : A_AC3
Duration : 1 h 28 min
Bit rate mode : Constant
Bit rate : 384 kb/s
Channel(s) : 2 channels
Channel positions : Front: L R
Sampling rate : 48.0 kHz
Frame rate : 31.250 FPS (1536 spf)
Compression mode : Lossy
Stream size : 243 MiB (13%)
Title : Dub [Line]
Language : Ukrainian
Default : No
Forced : No

Audio #3
ID : 4
Format : AC-3
Format/Info : Audio Coding 3
Mode extension : CM (complete main)
Format settings, Endianness : Big
Codec ID : A_AC3
Duration : 1 h 28 min
Bit rate mode : Constant
Bit rate : 448 kb/s
Channel(s) : 6 channels
Channel positions : Front: L C R, Side: L R, LFE
Sampling rate : 48.0 kHz
Frame rate : 31.250 FPS (1536 spf)
Compression mode : Lossy
Stream size : 284 MiB (16%)
Language : English
Default : No
Forced : No

Text #1
ID : 5
Format : UTF-8
Codec ID : S_TEXT/UTF8
Codec ID/Info : UTF-8 Plain Text
Language : English
Default : No
Forced : No

Text #2
ID : 6
Format : UTF-8
Codec ID : S_TEXT/UTF8
Codec ID/Info : UTF-8 Plain Text
Title : Commentory
Language : English
Default : No
Forced : No

Menu
00:00:00.000 : en:Chapter 1
00:05:06.681 : en:Chapter 2
00:09:05.378 : en:Chapter 3
00:13:14.794 : en:Chapter 4
00:19:22.370 : en:Chapter 5
00:21:31.832 : en:Chapter 6
00:26:41.975 : en:Chapter 7
00:32:31.241 : en:Chapter 8
00:34:48.086 : en:Chapter 9
00:39:49.429 : en:Chapter 10
00:45:49.121 : en:Chapter 11
00:51:22.204 : en:Chapter 12
00:54:31.852 : en:Chapter 13
00:58:58.201 : en:Chapter 14
01:02:58.441 : en:Chapter 15
01:08:21.597 : en:Chapter 16
01:11:40.963 : en:Chapter 17
01:15:03.416 : en:Chapter 18
01:20:54.808 : en:Chapter 19
01:23:52.527 : en:Chapter 20


Релиз от:

Автор релиза: pb.wtf



Скачать Агент Джонни Инглиш 3.0 через торрент https://a.radikal.ru/a22/1901/2c/3755aa1e2009.png Скачать фильм Агент Джонни Инглиш 3.0 через торрент бесплантно в хорошем качестве Описание: Когда все агенты секретной службы Её Величества внезапно выходят из строя, в игру вступает запасной вариант. Образец английского ... 9.3 10 25
Info! Золотая раздача, скачанное не засчитывается.
Торрент: Зарегистрирован [2019-01-05 00:40] · скачан: 1 196 раз
Статус: T временная
Размер: 1.77 GB
Как cкачать? Как скачать Агент Джонни Инглиш 3.0 через торрент | qTorrent

% Раздел Тема Автор DL S | L
Фильмы 2018 [DVDrip, WEB-DLRip, HDrip] (DUB, MVO) [ 1.57 GB ] Агент Джонни Инглиш 3.0 / Johnny English Strikes Again [2018 BDRip-AVC] - ExKinoRay Enigma2010 Скачать
1 | 0
T Фильмы с украинским озвучиванием [ 1.53 GB ] Агент Джонни Инглиш 3.0 / Johnny English Strikes Again [2018 BDRip-AVC] - [Украинский] - ExKinoRay Enigma2010 Скачать
3 | 0

28-11-2019 20:33  

Отключить всю рекламу на сайте

05-01-2019 00:52 Агент Джонни Инглиш 3.0 Скачать торрент  

Супер спасибо большое!pb.wtf



08-01-2019 00:54 Агент Джонни Инглиш 3.0 Скачать торрент  

говно полноеpb.wtf



08-01-2019 18:40 Агент Джонни Инглиш 3.0 Скачать торрент  

Не отношусь к гурманам высшего звена типа выше, но, с любовью относящийся к старым комедиям 80-90 гг., скажу - что поржали со сверстником от души. Берем "Голый пистолет, Горячие головы" + гений мистера Бина, и имхо получилось большее чем на в рейтингах на единицу-две. Еще раз мое мнение, не фига на комедии заходить после тяжелой работы, таких же запоев, и в крайнем негативе. Вряд ли в это время че-то весело-глуповатое хорошо зайдет. А вообще, кто-нить видал рейтинги у комедий больше 6,5. Может и есть, я не копал. Словом, тем кто с теплом относится к старым таким вещам - смотреть однозначно.pb.wtf



09-01-2019 15:20 Агент Джонни Инглиш 3.0 Скачать торрент  

Странно, что на постере есть Куриленко, значит один из основных персонажей, а в титрах на кинопоиске она вообще где то в низах самыхpb.wtf



    Дорогой пользователь! Огромная просьба, поблагодарите релизера, оцените раздачу и оставьте свои комментарий, если Вы скачали Агент Джонни Инглиш 3.0 через торрент бесплатно! Внесите свою лепту в развитие PiratBit!
    Комментировать посты могут только пользователи прошедшие не сложную регистрацию
    Показать сообщения:    

    Агент Джонни Инглиш 3.0 через торрент
    Скачать бесплатно Агент Джонни Инглиш 3.0
    Агент Джонни Инглиш 3.0 скачать торрент
    Агент Джонни Инглиш 3.0 смотреть онлайн
    Cкачать фильм Агент Джонни Инглиш 3.0 бесплатно
    Агент Джонни Инглиш 3.0 скачать торрент в хорошем качестве
    Агент Джонни Инглиш 3.0 смотреть онлайн бесплатно в хорошем качестве


    Вы не можете начинать темы
    Вы не можете отвечать на сообщения
    Вы не можете редактировать свои сообщения
    Вы не можете удалять свои сообщения
    Вы не можете голосовать в опросах
    Вы не можете прикреплять файлы к сообщениям
    Вы можете скачивать файлы