Ребята, если до конца года каждый наш пользователь пожертвует хотя бы 10 рублей, нам хватит денег оплатить все наши расходы.

iTunes

Хэллоуин

iTunes

venom

iTunes

Вы умрете, или мы вернем вам деньги

iTunes

iTunes

Тайна дома с часами

iTunes

Ничего хорошего в отеле «Эль рояль»

1080p

Хит недели

Лицензия

Агент Джонни Инглиш 3.0

ИГРА 18+

pack

RePack

Battlefield V

RePack

Assassins Creed: Odyssey
pack

Проголосуй

Лучший релизер 2018

RePack

Darksiders 3

iTunes 4K

venom Хит недели

RePack

fifa19

!!Акция!!

Alien_RageХит недели

RePack

NEED FOR SPEED™ PAYBACK

SATRip

9 сезон

Бесстыжие 9 сезон

Все сериалы

все сериалы на PB.wtf

iTunes

Мэнди

RePack

FAR CRY 5
  

Тайная суперзвезда / Secret Superstar (Адваит Чандан) [2017 г., Драма, семейный, музыка., WEB-DLRip 720р, Любительский (многоголосый) (Honey&Haseena)]

Тайная суперзвезда через торрент

Раздают: 1 [ 0 KB/s ]
Размер: 3.54 GB | Добавлен: 12 д. назад | Торрент скачан:7 раз
Скачать  

05-01-2019 01:37 Тайная суперзвезда Скачать торрент  

Тайная суперзвезда / Secret Superstar
Год выпуска: 2017
Страна: Индия
Жанр: Драма, семейный, музыка
Продолжительность: 2:30
Перевод: Любительский (многоголосый) [Honey&Haseena]
Примечание: Без рекламы
Субтитры: Встроенные на песни

Режиссер: Адваит Чандан

Бюджет: INR 500 000 000
Премьера в мире: 18 октября 2017

rating

В ролях: Заира Васим, Вайшали Сехда, Радж Арджун, Аамир Кхан, Тиртх Шарма, Kabir Sajid, Фаррух Джаффар, Манудж Шарма, Никита Ананд, Шаан и др.

Описание: 14-летняя девочка из Гуджарата хочет стать певицей. Отец против, но героиня не отказывается от своей мечты — она записывает видео с песней под гитару, где скрывает лицо паранджой, и выкладывает в Интернет. Ролик становится невероятно популярным.
После съёмок сцены, в которой Инсия ломает пластмассовое ведро, исполнительница роли Заира Васим проплакала ещё около часа. Впоследствии она призналась, что сама не ожидала от себя способности показать на съемках такие сильные эмоции.
Качество: WEB-DLRip 720р
Формат: MKV
Видео кодек: AVC
Аудио кодек: AC3
Видео: 1280 x 544 (2.35:1), 24.000 fps, 3 000 Kbps
Аудио#1: 6 channels, 48.0 KHz, 384 Kbps
Релиз от: Honey&Haseena
скриншот   скриншот   скриншот   скриншот   скриншот   скриншот  





Имя файла: Tainaya.superzvezda.2017.WEB-DLRip.MPEG-AVC.720p.Honey&Haseena.mkv
Формат файла: .mkv (Matroska)
Размер файла: 3,54 GB (3 798 115 886 bytes)
Длительность: 2h 29mn
Навигация по главам: Нет
Битрейт (все потоки): 3 385 Kbps
Файл создан: UTC 2018-04-22 10:48:37
Создан при помощи: mkvmerge v8.3.0 ('Over the Horizon') 32bit
Использовалась библиотека: libebml v1.3.1 + libmatroska v1.4.2
Обложка: Отсутствует

Название: Tainaya.superzvezda.2017.WEB-DLRip.MPEG-AVC.720p.Honey&Haseena

Тип потока: Видео
Длительность: 02:29:37
Кодек: AVC
Кодек/описание: Advanced Video Codec
Кодек/профиль: High@L4.1
Кодек/ID: V_MPEG4/ISO/AVC
Кодек/CABAC: Yes
Кодек/ReFrames: 4 frames
Размеры изображения: 1280 x 544 (2.35:1)
Частота кадров: 24.000 fps
Частота кадров/тип: Constant
Размер потока: 3.07 GiB (87%)
Битрейт: 3 000 Kbps
Библиотека кодирования: x264 core 130 r2273 b3065e6
Цветовое пространство: YUV
Тип развёртки: Progressive
Колориметрия: 4:2:0
Глубина: 8 bits
Настройки кодирования: cabac=1 / ref=3 / deblock=1:0:0 / analyse=0x3:0x113 / me=hex / subme=7 / psy=1 / psy_rd=1.00:0.00 / mixed_ref=1 / me_range=16 / chroma_me=1 / trellis=1 / 8x8dct=1 / cqm=0 / deadzone=21,11 / fast_pskip=1 / chroma_qp_offset=-2 / threads=12 / lookahead_threads=2 / sliced_threads=0 / nr=0 / decimate=1 / interlaced=0 / bluray_compat=0 / constrained_intra=0 / bframes=3 / b_pyramid=2 / b_adapt=1 / b_bias=0 / direct=1 / weightb=1 / open_gop=0 / weightp=2 / keyint=250 / keyint_min=24 / scenecut=40 / intra_refresh=0 / rc_lookahead=40 / rc=2pass / mbtree=1 / bitrate=3000 / ratetol=1.0 / qcomp=0.60 / qpmin=0 / qpmax=69 / qpstep=4 / cplxblur=20.0 / qblur=0.5 / ip_ratio=1.40 / aq=1:1.00

Тип потока: Звук #1
Длительность: 02:29:37.088
Кодек: AC-3
Кодек/описание: Audio Coding 3
Кодек/ID: A_AC3
Частота дискретизации: 48.0 KHz
Каналов: 6 channels
Битрейт: 384 Kbps
Битрейт/тип: Constant
Размер потока: 411 MiB (11%)
Глубина: 16 bits
Метод сжатия: Lossy




Скачать Тайная суперзвезда через торрент http://pic1.pb.wtf/images/12/e91kz.jpg Скачать фильм Тайная суперзвезда через торрент бесплантно в хорошем качестве Описание: 14-летняя девочка из Гуджарата хочет стать певицей. Отец против, но героиня не отказывается от своей мечты — она записывает видео ... 10 10 3
Торрент: Зарегистрирован [2019-01-05 01:37] · скачан: 7 раз
Статус: √ проверено
Размер: 3.54 GB
Как cкачать? Как скачать Тайная суперзвезда через торрент | qTorrent


>> Регистрируемся здесь <<






Отзывы и комментарии о схеме читаем и пишем здесь: ---> Отзывы и комментарии о схеме

Новые благодарочки в телеграм довольных пользователей:
скриншот   скриншот   скриншот   скриншот   скриншот

05-01-2019 08:32 Тайная суперзвезда Скачать торрент  

Топик был перенесен из форума Оформление раздач (Кино, Видео и ТВ) в форум Индийское кино


-Lexx-



10-01-2019 20:12 Тайная суперзвезда Скачать торрент  

Думаю фильм достоин просмотра, как и многие фильмы с Аамиром Кханом.



    Дорогой пользователь! Огромная просьба, поблагодарите релизера, оцените раздачу и оставьте свои комментарий, если Вы скачали Тайная суперзвезда через торрент бесплатно! Внесите свою лепту в развитие PiratBit!
    Комментировать посты могут только пользователи прошедшие не сложную регистрацию
    Показать сообщения:    

    Тайная суперзвезда через торрент
    Скачать бесплатно Тайная суперзвезда
    Тайная суперзвезда скачать торрент
    Тайная суперзвезда смотреть онлайн
    Cкачать фильм Тайная суперзвезда бесплатно
    Тайная суперзвезда скачать торрент в хорошем качестве
    Тайная суперзвезда смотреть онлайн бесплатно в хорошем качестве


    Вы не можете начинать темы
    Вы не можете отвечать на сообщения
    Вы не можете редактировать свои сообщения
    Вы не можете удалять свои сообщения
    Вы не можете голосовать в опросах
    Вы не можете прикреплять файлы к сообщениям
    Вы можете скачивать файлы