Ссылка на приватное зеркало нашего сайта всего за 1$. Внимание количество ограничено!!!

2 сезон

iTunes

1 сезон

1

iTunes

iTunes

iTunes

1 сезон

RePack

30

ИГРА 18+

pack

ВАЖНО

!!Акция!!

Alien_RageХит недели

RePack

MK11
pack

Забери бонус

RePack

jed

!!Акция!!

Alien_Rage

RePack

fifa19

RePack

Assassins Creed: Odyssey

RePack

NEED FOR SPEED™ PAYBACK

4 сезон

9 сезон

Бесстыжие 9 сезон

Все сериалы

все сериалы на PB.wtf

RePack

FAR CRY 5
  

Выхожу тебя искать / Сезон: 2 / Серии: 1-12 из 12 (Сергей Бобров) [2013, Детектив, WEBRip] pb.wtf

Выхожу тебя искать через торрент pb.wtf

Размер: 8.74 GB | Добавлен: 1 год 9 мес. назад | Торрент скачан:40 раз
Скачать  

05-01-2019 03:11 Выхожу тебя искать Скачать торрент  

Выхожу тебя искать 2Год выпуска: 2013
Страна: Россия
Жанр: Детектив
Продолжительность: ~ 00:52:00
Субтитры: отсутствуют

Режиссер: Сергей Бобров



В ролях:

Ольга Арнтгольц, Николай Иванов, Константин Соловьёв, Наташа Швец, Валерий Баринов, Марина Петренко, Александра Урсуляк, Ирина Бразговка, Эрик Дик, Елена Галибина и др.

Описание:

Прошло четыре года. Братья Демировы работают всё в том же отделе "Р". Михаил, похоже, остепенился. У него длительные - двухлетние - отношения с девушкой. В семье у Дениса тоже всё замечательно. Единственное, что омрачает жизнь - отсутствие детей. Ольга хочет усыновить потерявшегося мальчика. Денис на словах тоже "за". Рита вынуждена обратиться за помощью к Демировым - её приемный отец, доктор Высоцкий, уехал в Москву в командировку и не вернулся. Рита пробует самостоятельно искать его по горячим следам...

Качество: WEBRip
Формат: AVI

Видео: 720x400, 25.000 fps, ~1804 Kbps
Аудио: 48.0 kHz, AC3, 2/0 ch, 192 kbps
скриншот  скриншот  скриншот  скриншот  

Общее
Полное имя : D:\Vyhozhu_tebja_iskat'_S2_1-12iz12_2012_XviD_WEBRip\Vyhozhu_tebja_iskat'_S2_01.avi
Формат : AVI
Формат/Информация : Audio Video Interleave
Размер файла : 746 Мбайт
Продолжительность : 51 м. 58 с.
Общий поток : 2006 Кбит/сек
Библиотека кодирования : VirtualDub build 35491/release

Видео
Идентификатор : 0
Формат : MPEG-4 Visual
Профиль формата : Advanced Simple@L5
Параметр BVOP формата : 2
Параметр QPel формата : Нет
Параметр GMC формата : Без точки перехода
Параметр матрицы формата : Default (H.263)
Идентификатор кодека : XVID
Идентификатор кодека/Подсказка : XviD
Продолжительность : 51 м. 58 с.
Битрейт : 1804 Кбит/сек
Ширина : 720 пикселей
Высота : 400 пикселей
Соотношение сторон : 16:9
Частота кадров : 24,975 (25000/1001) кадров/сек
Цветовое пространство : YUV
Субдискретизация насыщенности : 4:2:0
Битовая глубина : 8 бит
Тип развёртки : Прогрессивная
Метод сжатия : С потерями
Бит/(Пиксели*Кадры) : 0.251
Размер потока : 671 Мбайт (90%)
Библиотека кодирования : XviD 67

Аудио
Идентификатор : 1
Формат : AC-3
Формат/Информация : Audio Coding 3
Расширение режима : CM (complete main)
Параметр Endianness формата : Big
Идентификатор кодека : 2000
Продолжительность : 51 м. 58 с.
Вид битрейта : Постоянный
Битрейт : 192 Кбит/сек
Каналы : 2 канала
Расположение каналов : Front: L R
Частота : 48,0 КГц
Частота кадров : 31,250 кадров/сек (1536 spf)
Метод сжатия : С потерями
Размер потока : 71,4 Мбайт (10%)
Выравнивание : Соединение по промежуткам
Продолжительность промежутка : 40 мс. (1,00 видеокадр)
Время предзагрузки промежутка : 512 мс.

pb.wtf



Скачать Выхожу тебя искать через торрент http://s018.radikal.ru/i507/1708/a1/b976f2aadb70.jpg Скачать фильм Выхожу тебя искать через торрент бесплантно в хорошем качестве Описание: Прошло четыре года. Братья Демировы работают всё в том же отделе "Р". Михаил, похоже, остепенился. У него длительные - двухлетние ... 10 10 5
Торрент: Зарегистрирован [2019-01-05 03:11] · скачан: 40 раз
Статус: √ проверено
Размер: 8.74 GB
Как cкачать? Как скачать Выхожу тебя искать через торрент | qTorrent

28-11-2019 20:33  

Отключить всю рекламу на сайте

    Дорогой пользователь! Огромная просьба, поблагодарите релизера, оцените раздачу и оставьте свои комментарий, если Вы скачали Выхожу тебя искать через торрент бесплатно! Внесите свою лепту в развитие PiratBit!
    Комментировать посты могут только пользователи прошедшие не сложную регистрацию
    Показать сообщения:    

    Выхожу тебя искать через торрент
    Скачать бесплатно Выхожу тебя искать
    Выхожу тебя искать скачать торрент
    Выхожу тебя искать смотреть онлайн
    Cкачать фильм Выхожу тебя искать бесплатно
    Выхожу тебя искать скачать торрент в хорошем качестве
    Выхожу тебя искать смотреть онлайн бесплатно в хорошем качестве


    Вы не можете начинать темы
    Вы не можете отвечать на сообщения
    Вы не можете редактировать свои сообщения
    Вы не можете удалять свои сообщения
    Вы не можете голосовать в опросах
    Вы не можете прикреплять файлы к сообщениям
    Вы можете скачивать файлы