2 сезон

iTunes

MVO

1

2 сезон

iTunes

iTunes

1 сезон

RePack

30

Новинка

ВАЖНО

ИГРА 18+

pack

RePack

MK11
pack

Легкие деньги

RePack

jed

RePack

fifa19

RePack

RDR2

RePack

NEED FOR SPEED™ PAYBACK

4 сезон

9 сезон

Бесстыжие 9 сезон

Все сериалы

все сериалы на PB.wtf

RePack

FAR CRY 5

Anonymous, доброй ночи, мы не успеваем собрать деньги на оплату серверов за декабрь и январь, помогите нам пожалуйста в это трудное время. В качестве благодарности мы отключим Вам всю рекламу на сайте (укажите свой ник в строку Ваше имя)!

×
  
Magnet ссылка

Тихоокеанский рубеж 2 / Pacific Rim Uprising (Стивен С. ДеНайт) [2018, фантастика, боевик, приключения, UHD BDRemux 2160p] [Dolby Vision TV] DUB [Лицензия] pb.wtf

Тихоокеанский рубеж 2 через торрент pb.wtf

Размер: 60.11 GB | Добавлен: 2 года назад | Торрент скачан:66 раз
Скачать  

05-01-2019 07:22 Тихоокеанский рубеж 2 Скачать торрент  

Тихоокеанский рубеж 2 / Pacific Rim Uprising
Год выпуска: 2018
Страна: Китай, США
Жанр: фантастика, боевик, приключения
Продолжительность: 01:50:41
Перевод: Дублированный | Лицензия
Субтитры: отсутствуют

Режиссер: Стивен С. ДеНайт

rating

В ролях:

Джон Бойега (Jake Pentecost), Скотт Иствуд (Nate Lambert), Кэйли Спэни (Amara Namani), Берн Горман (Hermann Gottlieb), Чарли Дэй (Dr. Newton Geiszler), Цзин Тянь (Liwen Shao), Макс Чжан (Marshal Quan), Адриа Архона (Jules Reyes), Ринко Кикути (Mako Mori), Каран Брэр (Cadet Suresh), Уэсли Вон (Cadet Jinhai), Иванна Сахно (Cadet Viktoria)
Описание:

Команда пилотируемых роботов-защитников остановила вторжение гигантских инопланетных монстров. Великая битва за Тихоокеанский рубеж ознаменовала новую главу в истории человечества. Однако война только начинается...

Пришло время нового поколения отстаивать своё право на Землю.

Качество: UHD BDRemux 2160p | Dolby Vision TV
Формат: MP4

Видео: HEVC HDR, 69.3 Мбит/с, 3840x2160
Аудио: 48 kHz, AC3, 640 Kbps | Лицензия | RUS |
Данный вид релизов (контейнер MP4) предназначен для встроенного в ТВ (соответственно, с поддержкой DV) плеер.
Т.Е. Можно использовать как USB flash/HDD, так и DLNA / Plex - подобные сервисы/программы. дополнительный-внешний плеер не обязателен.

Внимание!
На моделях LG 2016 возможны сюрпризы "через раз", 2017-2018 должно идти без сюрпризов )
скриншот  скриншот  скриншот  скриншот  

Общее
Полное имя : D:\Pacific.Rim.Uprising.2018.UHD.BDRemux.2160p.DV.IVA.RUS.ExKinoRay.mp4
Формат : MPEG-4
Профиль формата : Base Media / Version 2
Идентификатор кодека : mp42 (mp42/dby1/isom)
Размер файла : 60,1 Гбайт
Продолжительность : 1 ч. 50 м.
Общий поток : 77,7 Мбит/сек
Дата кодирования : UTC 2019-01-02 19:16:00
Дата пометки : UTC 2019-01-02 19:16:00

Видео #1
Идентификатор : 1
Формат : HEVC
Формат/Информация : High Efficiency Video Coding
Профиль формата : Main 10@L5.1@High
Идентификатор кодека : hev1
Идентификатор кодека/Информация : High Efficiency Video Coding
Продолжительность : 1 ч. 50 м.
Битрейт : 69,3 Мбит/сек
Ширина : 3840 пикселей
Высота : 2160 пикселей
Соотношение сторон : 16:9
Режим частоты кадров : Постоянный
Частота кадров : 23,976 (24000/1001) кадра/сек
Цветовое пространство : YUV
Субдискретизация насыщенности : 4:2:0 (Type 2)
Битовая глубина : 10 бит
Бит/(Пиксели*Кадры) : 0.348
Размер потока : 53,6 Гбайт (89%)
Default : Нет
Дата кодирования : UTC 2019-01-02 19:16:00
Дата пометки : UTC 2019-01-02 19:16:00
Цветовой диапазон : Limited
Основные цвета : BT.2020
Характеристики трансфера : SMPTE ST 2084
Коэффициенты матрицы : BT.2020 non-constant
MasteringDisplay_ColorPrimaries : R: x=0.680000 y=0.320000, G: x=0.265000 y=0.690000, B: x=0.150000 y=0.060000, White point: x=0.312700 y=0.329000
MasteringDisplay_Luminance : min: 0.0050 cd/m2, max: 1000.0000 cd/m2
MaxCLL : 1000 cd/m2
MaxFALL : 863 cd/m2

Видео #2
Идентификатор : 2
Формат : HEVC
Формат/Информация : High Efficiency Video Coding
Профиль формата : Main 10@L5.1@High
Идентификатор кодека : dvhe
Продолжительность : 1 ч. 50 м.
Битрейт : 7797 Кбит/сек
Ширина : 1920 пикселей
Высота : 1080 пикселей
Соотношение сторон : 16:9
Режим частоты кадров : Постоянный
Частота кадров : 23,976 (24000/1001) кадра/сек
Цветовое пространство : YUV
Субдискретизация насыщенности : 4:2:0 (Type 2)
Битовая глубина : 10 бит
Бит/(Пиксели*Кадры) : 0.157
Размер потока : 6,03 Гбайт (10%)
Default : Нет
Дата кодирования : UTC 2019-01-02 19:16:00
Дата пометки : UTC 2019-01-02 19:16:00
Цветовой диапазон : Limited
Основные цвета : BT.2020
Характеристики трансфера : SMPTE ST 2084
Коэффициенты матрицы : BT.2020 non-constant
MasteringDisplay_ColorPrimaries : R: x=0.680000 y=0.320000, G: x=0.265000 y=0.690000, B: x=0.150000 y=0.060000, White point: x=0.312700 y=0.329000
MasteringDisplay_Luminance : min: 0.0050 cd/m2, max: 1000.0000 cd/m2

Аудио
Идентификатор : 3
Формат : AC-3
Формат/Информация : Audio Coding 3
Расширение режима : CM (complete main)
Параметр Endianness формата : Big
Идентификатор кодека : ac-3
Продолжительность : 1 ч. 50 м.
Вид битрейта : Постоянный
Битрейт : 640 Кбит/сек
Каналы : 6 каналов
Расположение каналов : Front: L C R, Side: L R, LFE
Частота : 48,0 КГц
Частота кадров : 31,250 кадров/сек (1536 spf)
Битовая глубина : 16 бит
Метод сжатия : С потерями
Размер потока : 507 Мбайт (1%)
Язык : Russian
Default : Нет
Дата кодирования : UTC 2019-01-02 19:16:00
Дата пометки : UTC 2019-01-02 19:16:00

pb.wtf



Скачать Тихоокеанский рубеж 2 через торрент https://a.radikal.ru/a08/1806/a5/201c863e032b.jpg Скачать фильм Тихоокеанский рубеж 2 через торрент бесплантно в хорошем качестве Описание: Команда пилотируемых роботов-защитников остановила вторжение гигантских инопланетных монстров. Великая битва за Тихоокеанский ... 10 10 7
Торрент: Зарегистрирован [2019-01-05 07:22] · скачан: 66 раз
Статус: √ проверено
Размер: 60.11 GB
Как cкачать? Как скачать Тихоокеанский рубеж 2 через торрент | UTorrent

% Раздел Тема Автор DL S | L
Фильмы [HD 720p, 1080p] (Хороший звук DUB, MVO) [ 6.64 GB ] Тихоокеанский рубеж 2 / Pacific Rim Uprising [2018 BDRip 720p] DUB [] bober100 Скачать
2 | 0
3D Фильмы [ 13.16 GB ] Тихоокеанский рубеж 2 3Д / Pacific Rim Uprising 3D [2018 BDRip 1080p] [Локализованная версия] [Half OverUnder / Вертикальная анаморфная стереопара] DUB bober100 Скачать
1 | 0
Фильмы (WEB-DL 720p, 1080p) [ 3.79 GB ] Тихоокеанский рубеж 2 / Pacific Rim Uprising [2018 WEB-DL 1080p] bober100 Скачать
1 | 0
Ultra HD (UHD: 2K, 4K, 8K) — видео сверхвысокой чёткости [ 22.94 GB ] Тихоокеанский рубеж 2 / Pacific Rim: Uprising [2018 UHD BDRip 2160p] DUB + MVO [HDRezka Studio] sheker187 Скачать
1 | 0
Фильмы [HD 720p, 1080p] (Хороший звук DUB, MVO) [ 12.83 GB ] Тихоокеанский рубеж 2 / Pacific Rim Uprising [2018 BDRip 1080p] DUB [] bober100 Скачать
2 | 0
Фильмы 2018 [DVDrip, WEB-DLRip, HDrip] (DUB, MVO) [ 3.21 GB ] Тихоокеанский рубеж 2 / Pacific Rim Uprising [2018 BDRip-AVC] MVO [HDrezka Studio] - ExKinoRay Enigma2010 Скачать
1 | 0
Ultra HD (UHD: 2K, 4K, 8K) — видео сверхвысокой чёткости [ 85.56 GB ] Тихоокеанский рубеж 2 / Pacific Rim Uprising [2018 UHD Blu-ray EUR 2160p] [Dolby Vision] DUB [] bober100 Скачать
1 | 0

28-11-2019 20:33  

Отключить всю рекламу на сайте

    Дорогой пользователь! Огромная просьба, поблагодарите релизера, оцените раздачу и оставьте свои комментарий, если Вы скачали Тихоокеанский рубеж 2 через торрент бесплатно! Внесите свою лепту в развитие PiratBit!
    Комментировать посты могут только пользователи прошедшие не сложную регистрацию
    Показать сообщения:    

    Тихоокеанский рубеж 2 через торрент
    Скачать бесплатно Тихоокеанский рубеж 2
    Тихоокеанский рубеж 2 скачать торрент
    Тихоокеанский рубеж 2 смотреть онлайн
    Cкачать фильм Тихоокеанский рубеж 2 бесплатно
    Тихоокеанский рубеж 2 скачать торрент в хорошем качестве
    Тихоокеанский рубеж 2 смотреть онлайн бесплатно в хорошем качестве


    Вы не можете начинать темы
    Вы не можете отвечать на сообщения
    Вы не можете редактировать свои сообщения
    Вы не можете удалять свои сообщения
    Вы не можете голосовать в опросах
    Вы не можете прикреплять файлы к сообщениям
    Вы можете скачивать файлы