Всегда рабочее зеркало без VPN и Proxy просто перед .vidak.icu напиши любое слово или цифру, Пример http://it1y.vidak.icu

MVO

MVO

1 сезон

1

1 сезон

iTunes

1 сезон

13

1 сезон

Deluxe

pack

Рекомендуем

Repack

30

ВАЖНО

RePack

MK11

RePack

jed

RePack

fifa19

RePack

RDR2

RePack

NEED FOR SPEED™ PAYBACK

Кинопоиск HD

6 сезон

 Острые козырьки 6 сезон

Все сериалы

все сериалы на PB.wtf

RePack

FAR CRY 5
  
Magnet ссылка

Король вечеринок / Van Wilder (Уолт Бекер) [2002, Комедия, мелодрама, UHD BDRemux 2160p] 3xMVO+DVO+AVO pb.wtf

Король вечеринок через торрент pb.wtf

Размер: 50.19 GB | Добавлен: 3 года 7 мес. назад | Торрент скачан:11 раз
Смотреть онлайн Король вечеринок | Скачать    Ребята, помогите собрать деньги на оплату серверов!!!

05-01-2019 08:17 Король вечеринок Скачать торрент  

Король вечеринок / Van Wilder
Год выпуска: 2002
Страна: США, Германия
Жанр: Комедия, мелодрама
Продолжительность: 01:33:52
Перевод: Профессиональный (многоголосый), Профессиональный двухголосый, Авторский
Субтитры: русские (по переводу Пирамиды), английские (full, SDH)

Режиссер: Уолт Бекер

rating

В ролях:

Райан Рейнольдс, Тара Рейд, Тим Мэтисон, Кэл Пенн, Тек Холмс, Дэниэл Косгров, Дион Ричмонд, Алекс Барнс, Эмили Рутерферд, Пол Глисон, Эрик Эстрада, Кёртис Армстронг

Описание:

Вэн Уайлдер учится в колледже уже шесть лет, и все никак не может получить диплом. Но вовсе не из-за того, что он самый тупой ученик в группе, а потому что без ума влюблен в беззаботную студенческую жизнь. К своему ужасу он узнает, что отец не намерен оплачивать затянувшуюся учебу своего отпрыска, и теперь у него всего два варианта: либо самостоятельно заплатить за седьмой год веселья, либо… стать, в конце концов, выпускником!

Качество: UHD BDRemux 2160p
Формат: MKV

Видео: MPEG-H HEVC Video / 70365 kbps / 3840x2160 / 23.976 fps / 16:9 / Main 10 Profile 5.1 High / 4:2:0 / 10 bits / HDR / BT.2020 /
Аудио#1: Russian AC3 / 5.1 / 48 kHz / 448 kbps / 16-bit |DVO, Пирамида|
Аудио#2: Russian AC3 / 5.1 / 48 kHz / 384 kbps / 16-bit |MVO, Киномания|
Аудио#3: Russian AC3 / 2.0 / 48 kHz / 192 kbps / 16-bit |MVO, Россия|
Аудио#4: Russian AC3 / 2.0 / 48 kHz / 192 kbps / 16-bit |MVO, СТС|
Аудио#5: Russian AC3 / 2.0 / 48 kHz / 192 kbps / 16-bit |Е. Рудой|
Аудио#6: English Dolby Atmos/TrueHD Audio / 7.1-Atmos / 48 kHz / 4701 kbps / 24-bit |original|
Аудио#7: English AC3 Core: 5.1-EX / 48 kHz / 448 kbps |original|
скриншот  скриншот  скриншот  скриншот  скриншот  скриншот  

Общее
Уникальный идентификатор : 314498483711628470577052442562885929588 (0xEC9A3468D27F3C295D5F1890BA114A74)
Полное имя : D:\Король вечеринок.2002.UHD.BluRay.Remux.2160p.mkv
Формат : Matroska
Версия формата : Version 4 / Version 2
Размер файла : 50,2 Гбайт
Продолжительность : 1 ч. 33 м.
Режим общего битрейта : Переменный
Общий поток : 76,5 Мбит/сек
Дата кодирования : UTC 2019-01-02 19:56:30
Программа кодирования : mkvmerge v29.0.0 ('Like It Or Not') 64-bit
Библиотека кодирования : libebml v1.3.6 + libmatroska v1.4.9
Attachments : poster.jpg

Видео
Идентификатор : 1
Формат : HEVC
Формат/Информация : High Efficiency Video Coding
Профиль формата : Main [email protected]@High
Идентификатор кодека : V_MPEGH/ISO/HEVC
Продолжительность : 1 ч. 33 м.
Битрейт : 70,4 Мбит/сек
Ширина : 3840 пикселей
Высота : 2160 пикселей
Соотношение сторон : 16:9
Режим частоты кадров : Постоянный
Частота кадров : 23,976 (24000/1001) кадра/сек
Цветовое пространство : YUV
Субдискретизация насыщенности : 4:2:0 (Type 2)
Битовая глубина : 10 бит
Default : Да
Forced : Нет
Цветовой диапазон : Limited
Основные цвета : BT.2020
Характеристики трансфера : SMPTE ST 2084
Коэффициенты матрицы : BT.2020 non-constant
MasteringDisplay_ColorPrimaries : R: x=0.680000 y=0.320000, G: x=0.265000 y=0.690000, B: x=0.150000 y=0.060000, White point: x=0.312700 y=0.329000
MasteringDisplay_Luminance : min: 0.0050 cd/m2, max: 1000.0000 cd/m2
MaxCLL : 1000 cd/m2
MaxFALL : 829 cd/m2

Аудио #1
Идентификатор : 2
Формат : AC-3
Формат/Информация : Audio Coding 3
Расширение режима : CM (complete main)
Параметр Endianness формата : Big
Идентификатор кодека : A_AC3
Продолжительность : 1 ч. 33 м.
Вид битрейта : Постоянный
Битрейт : 448 Кбит/сек
Каналы : 6 каналов
Расположение каналов : Front: L C R, Side: L R, LFE
Частота : 48,0 КГц
Частота кадров : 31,250 кадров/сек (1536 spf)
Метод сжатия : С потерями
Размер потока : 301 Мбайт (1%)
Заголовок : DVO, Пирамида
Язык : Russian
Default : Да
Forced : Нет

Аудио #2
Идентификатор : 3
Формат : AC-3
Формат/Информация : Audio Coding 3
Расширение режима : CM (complete main)
Параметр Endianness формата : Big
Идентификатор кодека : A_AC3
Продолжительность : 1 ч. 33 м.
Вид битрейта : Постоянный
Битрейт : 384 Кбит/сек
Каналы : 6 каналов
Расположение каналов : Front: L C R, Side: L R, LFE
Частота : 48,0 КГц
Частота кадров : 31,250 кадров/сек (1536 spf)
Метод сжатия : С потерями
Размер потока : 258 Мбайт (1%)
Заголовок : MVO
Язык : Russian
Default : Нет
Forced : Нет

Аудио #3
Идентификатор : 4
Формат : AC-3
Формат/Информация : Audio Coding 3
Расширение режима : CM (complete main)
Параметр Endianness формата : Big
Идентификатор кодека : A_AC3
Продолжительность : 1 ч. 33 м.
Вид битрейта : Постоянный
Битрейт : 192 Кбит/сек
Каналы : 2 канала
Расположение каналов : Front: L R
Частота : 48,0 КГц
Частота кадров : 31,250 кадров/сек (1536 spf)
Метод сжатия : С потерями
Размер потока : 129 Мбайт (0%)
Заголовок : MVO, Россия
Язык : Russian
Default : Нет
Forced : Нет

Аудио #4
Идентификатор : 5
Формат : AC-3
Формат/Информация : Audio Coding 3
Расширение режима : CM (complete main)
Параметр Endianness формата : Big
Идентификатор кодека : A_AC3
Продолжительность : 1 ч. 33 м.
Вид битрейта : Постоянный
Битрейт : 192 Кбит/сек
Каналы : 2 канала
Расположение каналов : Front: L R
Частота : 48,0 КГц
Частота кадров : 31,250 кадров/сек (1536 spf)
Метод сжатия : С потерями
Размер потока : 129 Мбайт (0%)
Заголовок : MVO, СТС
Язык : Russian
Default : Нет
Forced : Нет

Аудио #5
Идентификатор : 6
Формат : AC-3
Формат/Информация : Audio Coding 3
Расширение режима : CM (complete main)
Параметр Endianness формата : Big
Идентификатор кодека : A_AC3
Продолжительность : 1 ч. 33 м.
Вид битрейта : Постоянный
Битрейт : 192 Кбит/сек
Каналы : 2 канала
Расположение каналов : Front: L R
Частота : 48,0 КГц
Частота кадров : 31,250 кадров/сек (1536 spf)
Метод сжатия : С потерями
Размер потока : 129 Мбайт (0%)
Заголовок : Е. Рудой
Язык : Russian
Default : Нет
Forced : Нет

Аудио #6
Идентификатор : 7
Формат : Atmos / TrueHD
Идентификатор кодека : A_TRUEHD
Вид битрейта : Переменный
Максимальный битрейт : 6540 Кбит/сек
Каналы : Object Based / 8 каналов
Расположение каналов : Object Based / Front: L C R, Side: L R, Back: L R, LFE
Частота : / 48,0 КГц
Частота кадров : 1200,000 кадров/сек (40 spf)
Метод сжатия : Без потерь
Язык : English
Default : Нет
Forced : Нет

Аудио #7
Идентификатор : 8
Формат : AC-3
Формат/Информация : Audio Coding 3
Расширение режима : CM (complete main)
Параметр Endianness формата : Big
Идентификатор кодека : A_AC3
Продолжительность : 1 ч. 33 м.
Вид битрейта : Постоянный
Битрейт : 448 Кбит/сек
Каналы : 6 каналов
Расположение каналов : Front: L C R, Side: L R, LFE
Частота : 48,0 КГц
Частота кадров : 31,250 кадров/сек (1536 spf)
Метод сжатия : С потерями
Размер потока : 301 Мбайт (1%)
Язык : English
Default : Нет
Forced : Нет

Текст #1
Идентификатор : 9
Формат : UTF-8
Идентификатор кодека : S_TEXT/UTF8
Идентификатор кодека/Информация : UTF-8 Plain Text
Заголовок : по переводу Пирамиды
Язык : Russian
Default : Нет
Forced : Нет

Текст #2
Идентификатор : 10
Формат : UTF-8
Идентификатор кодека : S_TEXT/UTF8
Идентификатор кодека/Информация : UTF-8 Plain Text
Заголовок : full
Язык : English
Default : Нет
Forced : Нет

Текст #3
Идентификатор : 11
Формат : UTF-8
Идентификатор кодека : S_TEXT/UTF8
Идентификатор кодека/Информация : UTF-8 Plain Text
Заголовок : SDH
Язык : English
Default : Нет
Forced : Нет

Меню
00:00:00.000 : en:Assistant Auditions
00:06:34.436 : en:Foreign Option
00:09:30.069 : en:Hot New Story
00:15:41.399 : en:Extension Program
00:18:56.010 : en:Topless Tutor
00:24:55.202 : en:Roller Party
00:28:59.780 : en:Spreading the News
00:34:34.864 : en:Ice Princess
00:41:13.179 : en:Dinner Invite
00:45:23.137 : en:Fooling Around
00:49:03.941 : en:All Beef Franks
00:53:25.327 : en:Save the Swim Team
01:03:07.409 : en:Party Crashers
01:08:03.204 : en:Wilder Days
01:12:38.479 : en:Van Appeal
01:21:41.146 : en:Van the Man

pb.wtf



Скачать Король вечеринок через торрент http://img12.lostpic.net/2018/08/18/80b36da7f397eda8e3e3eea6ed5d273f.jpg Скачать, смотреть онлайн Король вечеринок бесплантно в хорошем качестве Описание: Вэн Уайлдер учится в колледже уже шесть лет, и все никак не может получить диплом. Но вовсе не из-за того, что он самый тупой ... 10 10 3
Info! Золотая раздача, скачанное не засчитывается.
Торрент: Зарегистрирован [2019-01-05 08:17] · скачан: 11 раз
Статус: √ проверено
Размер: 50.19 GB
Как cкачать? Как скачать Король вечеринок через торрент | UTorrent

28-11-2019 20:33  

Отключить вcю реклaмy на сайте

26-05-2020 01:49 Король вечеринок Скачать торрент  

пожалуйста встаньте на раздачуpb.wtf



    Дорогой пользователь! Огромная просьба, поблагодарите релизера, оцените раздачу и оставьте свои комментарий, если Вы скачали Король вечеринок через торрент бесплатно!
    Комментировать посты могут только пользователи прошедшие не сложную регистрацию
    Показать сообщения:    

    Король вечеринок через торрент
    Скачать бесплатно Король вечеринок
    Король вечеринок скачать торрент
    Король вечеринок смотреть онлайн
    Cкачать фильм Король вечеринок бесплатно
    Король вечеринок скачать торрент в хорошем качестве
    Король вечеринок смотреть онлайн бесплатно в хорошем качестве


    Вы не можете начинать темы
    Вы не можете отвечать на сообщения
    Вы не можете редактировать свои сообщения
    Вы не можете удалять свои сообщения
    Вы не можете голосовать в опросах
    Вы не можете прикреплять файлы к сообщениям
    Вы можете скачивать файлы