Всегда рабочее зеркало без VPN и Proxy просто перед .vidak.icu напиши любое слово или цифру, Пример http://kjfq.vidak.icu

Лицензия

MVO

1 сезон

1

1 сезон

iTunes

1 сезон

13

1 сезон

Deluxe

pack

Рекомендуем

Repack

30

ВАЖНО

RePack

MK11

RePack

jed

RePack

fifa19

RePack

RDR2

RePack

NEED FOR SPEED™ PAYBACK

Кинопоиск HD

6 сезон

 Острые козырьки 6 сезон

Все сериалы

все сериалы на PB.wtf

RePack

FAR CRY 5
  
Magnet ссылка

Взрывная блондинка / Atomic Blonde (Дэвид Литч) [2017, боевик, триллер, детектив, UHD BDRemux 2160p] [Dolby Vision TV] DUB [iTunes] pb.wtf

Взрывная блондинка через торрент pb.wtf

Размер: 43.86 GB | Добавлен: 3 года 7 мес. назад | Торрент скачан:43 раза
Смотреть онлайн Взрывная блондинка | Скачать    Ребята, помогите собрать деньги на оплату серверов!!!

05-01-2019 08:29 Взрывная блондинка Скачать торрент  

Взрывная блондинка / Atomic Blonde Год выпуска: 2017
Страна: Германия, Швеция, США
Жанр: боевик, триллер, детектив
Продолжительность: 01:56:37
Перевод: Дублированный | iTunes
Субтитры: отсутствуют

Режиссер: Дэвид Литч

rating

В ролях:

Шарлиз Терон, Джеймс МакЭвой, Эдди Марсан, Джон Гудман, Тоби Джонс, Джеймс Фолкнер, Роланд Мюллер, София Бутелла, Билл Скарсгард, Сэм Харгрейв, ...

Описание:

Агент Лоррейн Бротон, бриллиант в короне Секретной разведывательной службы Ее Величества, не просто мастер шпионажа: она бомбически сексуальна, взрывоопасна и использует весь арсенал своих уникальных умений во время невыполнимых миссий. В неспокойном Берлине, куда ее направляют с заданием вернуть бесценное досье, она вынуждена объединиться с агентом под прикрытием Дэвидом Персивалем. Вместе им предстоит проложить путь через тернии смертельных шпионских игр…

Качество: UHD BDRemux 2160p | Dolby Vision TV
Формат: MP4

Видео: MPEG-H HEVC HDR Video, 3840x2160, 46.3 Mbit/s, 23.976 fps
Аудио: 48 kHz, AC3, 5.1, 384 Kbps | Дублированный | RUS |


Релиз от:
Данный вид релизов (контейнер MP4) предназначен для встроенного в ТВ (соответственно, с поддержкой DV) плеер.
Т.Е. Можно использовать как USB flash/HDD, так и DLNA / Plex - подобные сервисы/программы. дополнительный-внешний плеер не обязателен.

Внимание!
На моделях LG 2016 возможны сюрпризы "через раз", 2017-2018 должно идти без сюрпризов )
скриншот  скриншот  скриншот  скриншот  скриншот  

Общее
Полное имя : D:\Atomic.Blonde.2017.4K.UHD.BDRemux.2160p.DV.IVA.RUS.ExKinoRay.mp4
Формат : MPEG-4
Профиль формата : Base Media / Version 2
Идентификатор кодека : mp42 (mp42/dby1/isom)
Размер файла : 43,9 Гбайт
Продолжительность : 1 ч. 54 м.
Общий поток : 54,7 Мбит/сек
Дата кодирования : UTC 2019-01-02 22:46:39
Дата пометки : UTC 2019-01-02 22:46:39

Видео #1
Идентификатор : 1
Формат : HEVC
Формат/Информация : High Efficiency Video Coding
Профиль формата : Main [email protected]@High
Идентификатор кодека : hev1
Идентификатор кодека/Информация : High Efficiency Video Coding
Продолжительность : 1 ч. 54 м.
Битрейт : 46,3 Мбит/сек
Ширина : 3840 пикселей
Высота : 2160 пикселей
Соотношение сторон : 16:9
Режим частоты кадров : Постоянный
Частота кадров : 23,976 (24000/1001) кадра/сек
Цветовое пространство : YUV
Субдискретизация насыщенности : 4:2:0 (Type 2)
Битовая глубина : 10 бит
Бит/(Пиксели*Кадры) : 0.233
Размер потока : 37,1 Гбайт (85%)
Default : Нет
Дата кодирования : UTC 2019-01-02 22:46:39
Дата пометки : UTC 2019-01-02 22:46:39
Цветовой диапазон : Limited
Основные цвета : BT.2020
Характеристики трансфера : SMPTE ST 2084
Коэффициенты матрицы : BT.2020 non-constant
MasteringDisplay_ColorPrimaries : R: x=0.680000 y=0.320000, G: x=0.265000 y=0.690000, B: x=0.150000 y=0.060000, White point: x=0.312700 y=0.329000
MasteringDisplay_Luminance : min: 0.0050 cd/m2, max: 1000.0000 cd/m2
MaxCLL : 600 cd/m2
MaxFALL : 487 cd/m2

Видео #2
Идентификатор : 2
Формат : HEVC
Формат/Информация : High Efficiency Video Coding
Профиль формата : Main [email protected]@High
Идентификатор кодека : dvhe
Продолжительность : 1 ч. 54 м.
Битрейт : 8024 Кбит/сек
Ширина : 1920 пикселей
Высота : 1080 пикселей
Соотношение сторон : 16:9
Режим частоты кадров : Постоянный
Частота кадров : 23,976 (24000/1001) кадра/сек
Цветовое пространство : YUV
Субдискретизация насыщенности : 4:2:0 (Type 2)
Битовая глубина : 10 бит
Бит/(Пиксели*Кадры) : 0.161
Размер потока : 6,43 Гбайт (15%)
Default : Нет
Дата кодирования : UTC 2019-01-02 22:46:39
Дата пометки : UTC 2019-01-02 22:46:39
Цветовой диапазон : Limited
Основные цвета : BT.2020
Характеристики трансфера : SMPTE ST 2084
Коэффициенты матрицы : BT.2020 non-constant
MasteringDisplay_ColorPrimaries : R: x=0.680000 y=0.320000, G: x=0.265000 y=0.690000, B: x=0.150000 y=0.060000, White point: x=0.312700 y=0.329000
MasteringDisplay_Luminance : min: 0.0050 cd/m2, max: 1000.0000 cd/m2

Аудио
Идентификатор : 3
Формат : AC-3
Формат/Информация : Audio Coding 3
Расширение режима : CM (complete main)
Параметр Endianness формата : Big
Идентификатор кодека : ac-3
Продолжительность : 1 ч. 54 м.
Вид битрейта : Постоянный
Битрейт : 384 Кбит/сек
Каналы : 6 каналов
Расположение каналов : Front: L C R, Side: L R, LFE
Частота : 48,0 КГц
Частота кадров : 31,250 кадров/сек (1536 spf)
Битовая глубина : 16 бит
Метод сжатия : С потерями
Размер потока : 315 Мбайт (1%)
Язык : Russian
Default : Нет
Дата кодирования : UTC 2019-01-02 22:46:39
Дата пометки : UTC 2019-01-02 22:46:39

pb.wtf



Скачать Взрывная блондинка через торрент http://s46.radikal.ru/i111/1712/2a/f145c0fdd67d.jpg Скачать, смотреть онлайн Взрывная блондинка бесплантно в хорошем качестве Описание: Агент Лоррейн Бротон, бриллиант в короне Секретной разведывательной службы Ее Величества, не просто мастер шпионажа: она ... 10 10 4
Торрент: Зарегистрирован [2019-01-05 08:29] · скачан: 43 раз
Статус: √ проверено
Размер: 43.86 GB
Как cкачать? Как скачать Взрывная блондинка через торрент | UTorrent

% Раздел Тема Автор DL S | L
Фильмы (Blu-ray, BD-Remux, HDDVD) [ 30.34 GB ] Взрывная блондинка / Atomic Blonde [2017 BD Remux 1080p] bober100 Скачать
1 | 0
Фильмы 2017 [DVDrip, WEB-DLRip, HDrip] (DUB, MVO) [ 2.11 GB ] Взрывная блондинка / Atomic Blonde [2017 WEB-DLRip-AVC] MVO - ExKinoRay Enigma2010 Скачать
1 | 0
Ultra HD (UHD: 2K, 4K, 8K) — видео сверхвысокой чёткости [ 50.03 GB ] Взрывная блондинка / Atomic Blonde [2017 UHD BDRemux 2160p] [Dolby Vision] sheker187 Скачать
1 | 0
Фильмы с авторской озвучкой [ 2.06 GB ] Взрывная блондинка / Убойная блондинка / Atomic Blonde [2017 BDRip] [AVO] killermax2013 Скачать
1 | 0
Фильмы (WEB-DL 720p, 1080p) [ 7.1 GB ] Взрывная блондинка / Atomic Blonde [2017 WEB-DL 1080p] bober100 Скачать
1 | 0
Фильмы с авторской озвучкой [ 2.3 GB ] Взрывная блондинка / Atomic Blonde [2017 BDRip-AVC] AVO [Есарев] - ExKinoRay Enigma2010 Скачать
1 | 0
Ultra HD (UHD: 2K, 4K, 8K) — видео сверхвысокой чёткости [ 41.32 GB ] Взрывная блондинка / Atomic Blonde [2017 UHD BDRemux 2160p] +MVO [Paradox&Omskbird] bober100 Скачать
1 | 0


Последний раз редактировалось: bober100 (2019-01-09 04:50), всего редактировалось 1 раз

28-11-2019 20:33  

Отключить вcю реклaмy на сайте

08-01-2019 22:48 Взрывная блондинка Скачать торрент  

спасибо автору раздачи!pb.wtf



    Дорогой пользователь! Огромная просьба, поблагодарите релизера, оцените раздачу и оставьте свои комментарий, если Вы скачали Взрывная блондинка через торрент бесплатно!
    Комментировать посты могут только пользователи прошедшие не сложную регистрацию
    Показать сообщения:    

    Взрывная блондинка через торрент
    Скачать бесплатно Взрывная блондинка
    Взрывная блондинка скачать торрент
    Взрывная блондинка смотреть онлайн
    Cкачать фильм Взрывная блондинка бесплатно
    Взрывная блондинка скачать торрент в хорошем качестве
    Взрывная блондинка смотреть онлайн бесплатно в хорошем качестве


    Вы не можете начинать темы
    Вы не можете отвечать на сообщения
    Вы не можете редактировать свои сообщения
    Вы не можете удалять свои сообщения
    Вы не можете голосовать в опросах
    Вы не можете прикреплять файлы к сообщениям
    Вы можете скачивать файлы