Ссылка на приватное зеркало нашего сайта всего за 1$. Внимание количество ограничено!!!

2 сезон

iTunes

1 сезон

1

2 сезон

2 сезон

iTunes

1 сезон

RePack

30

Ultimate

ВАЖНО

ИГРА 18+

pack

RePack

MK11
pack

Забери бонус

RePack

jed

!!Акция!!

Alien_Rage

RePack

fifa19

RePack

Assassins Creed: Odyssey

RePack

NEED FOR SPEED™ PAYBACK

4 сезон

9 сезон

Бесстыжие 9 сезон

Все сериалы

все сериалы на PB.wtf

RePack

FAR CRY 5
  

Stratovarius - Enigma (Intermission II) - 2018/ FLAC/ tracks +.cue/ lossless/ Power Metal pb.wtf

Stratovarius - Enigma через торрент pb.wtf

Размер: 525 MB | Добавлен: 1 год 10 мес. назад | Торрент скачан:31 раз
Скачать  

05-01-2019 10:43 Stratovarius - Enigma Скачать торрент  


Stratovarius - Enigma (Intermission II)


Год издания: 2018
Страна: Finland
Жанр: Power Metal
Продолжительность: 01:15:00
Лейбл издания: Ear Music
Страна-выпуска диска: Germany
Номер по каталогу: 0213397EMU
Формат: FLAC
Битрейт аудио: Lossless
Тип рипа: tracks +.cue
Наличие сканов в содержимом раздачи: да


01. Enigma (4:22)
02. Hunter (3:30)
03. Hollowed (5:53)
04. Burn Me Down (3:43)
05. Last Shore (5:33)
06. Kill It With Fire (4:52)
07. Oblivion (3:51)
08. Second Sight (4:26)
09. Fireborn (4:47)
10. Giants (5:28)
11. Castaway (4:41)
12. Old Man And The Sea (4:16)
13. Fantasy (Orchestral Version) (4:25)
14. Shine In The Dark (Orchestral Version) (4:28)
15. Unbreakable (Orchestral Version) (4:46)
16. Winter Skies (Orchestral Version) (6:00)

Код:

Exact Audio Copy V1.3 from 2. September 2016

EAC extraction logfile from 17. November 2018, 21:33

Stratovarius / Enigma: Intermission II

Used drive  : TSSTcorpCDDVDW SH-224DB   Adapter: 1  ID: 0

Read mode               : Secure
Utilize accurate stream : Yes
Defeat audio cache      : Yes
Make use of C2 pointers : No

Read offset correction                      : 6
Overread into Lead-In and Lead-Out          : No
Fill up missing offset samples with silence : Yes
Delete leading and trailing silent blocks   : No
Null samples used in CRC calculations       : Yes
Used interface                              : Native Win32 interface for Win NT & 2000
Gap handling                                : Appended to previous track

Used output format              : User Defined Encoder
Selected bitrate                : 1024 kBit/s
Quality                         : High
Add ID3 tag                     : No
Command line compressor         : C:\Program Files (x86)\Exact Audio Copy\win64\flac.exe
Additional command line options : -8 -V -T "ARTIST=%artist%" -T "TITLE=%title%" -T "ALBUM=%albumtitle%" -T "DATE=%year%" -T "TRACKNUMBER=%tracknr%" -T "GENRE=%genre%" -T "COMMENT=%comment%" %source% -o %dest%

TOC of the extracted CD

     Track |   Start  |  Length  | Start sector | End sector
    ---------------------------------------------------------
        1  |  0:00.00 |  4:21.44 |         0    |    19618
        2  |  4:21.44 |  3:30.08 |     19619    |    35376
        3  |  7:51.52 |  5:53.10 |     35377    |    61861
        4  | 13:44.62 |  3:42.72 |     61862    |    78583
        5  | 17:27.59 |  5:32.73 |     78584    |   103556
        6  | 23:00.57 |  4:52.18 |    103557    |   125474
        7  | 27:53.00 |  3:51.02 |    125475    |   142801
        8  | 31:44.02 |  4:26.07 |    142802    |   162758
        9  | 36:10.09 |  4:46.63 |    162759    |   184271
       10  | 40:56.72 |  5:28.28 |    184272    |   208899
       11  | 46:25.25 |  4:41.34 |    208900    |   230008
       12  | 51:06.59 |  4:15.40 |    230009    |   249173
       13  | 55:22.24 |  4:24.45 |    249174    |   269018
       14  | 59:46.69 |  4:27.44 |    269019    |   289087
       15  | 64:14.38 |  4:45.49 |    289088    |   310511
       16  | 69:00.12 |  6:00.15 |    310512    |   337526

Track  1

     Filename F:\Sket4er\Stratovarius – Enigma (Intermission II)  2018\01 Enigma.wav

     Pre-gap length  0:00:02.00

     Peak level 99.4 %
     Extraction speed 1.7 X
     Track quality 99.9 %
     Test CRC 2217B1D3
     Copy CRC 2217B1D3
     Track not present in AccurateRip database
     Copy OK

Track  2

     Filename F:\Sket4er\Stratovarius – Enigma (Intermission II)  2018\02 Hunter.wav

     Peak level 93.8 %
     Extraction speed 2.0 X
     Track quality 100.0 %
     Test CRC 7FA93788
     Copy CRC 7FA93788
     Track not present in AccurateRip database
     Copy OK

Track  3

     Filename F:\Sket4er\Stratovarius – Enigma (Intermission II)  2018\03 Hollowed.wav

     Peak level 99.4 %
     Extraction speed 2.4 X
     Track quality 100.0 %
     Test CRC 65E5042F
     Copy CRC 65E5042F
     Track not present in AccurateRip database
     Copy OK

Track  4

     Filename F:\Sket4er\Stratovarius – Enigma (Intermission II)  2018\04 Burn Me Down.wav

     Peak level 99.4 %
     Extraction speed 2.4 X
     Track quality 100.0 %
     Test CRC 406067B2
     Copy CRC 406067B2
     Track not present in AccurateRip database
     Copy OK

Track  5

     Filename F:\Sket4er\Stratovarius – Enigma (Intermission II)  2018\05 Last Shore.wav

     Peak level 99.4 %
     Extraction speed 2.4 X
     Track quality 99.9 %
     Test CRC C0700F86
     Copy CRC C0700F86
     Track not present in AccurateRip database
     Copy OK

Track  6

     Filename F:\Sket4er\Stratovarius – Enigma (Intermission II)  2018\06 Kill It With Fire.wav

     Peak level 99.4 %
     Extraction speed 2.9 X
     Track quality 100.0 %
     Test CRC 566E9FDA
     Copy CRC 566E9FDA
     Track not present in AccurateRip database
     Copy OK

Track  7

     Filename F:\Sket4er\Stratovarius – Enigma (Intermission II)  2018\07 Oblivion.wav

     Peak level 99.4 %
     Extraction speed 2.9 X
     Track quality 100.0 %
     Test CRC 112C3B3A
     Copy CRC 112C3B3A
     Track not present in AccurateRip database
     Copy OK

Track  8

     Filename F:\Sket4er\Stratovarius – Enigma (Intermission II)  2018\08 Second Sight.wav

     Peak level 93.8 %
     Extraction speed 3.1 X
     Track quality 100.0 %
     Test CRC D6B4CAF7
     Copy CRC D6B4CAF7
     Track not present in AccurateRip database
     Copy OK

Track  9

     Filename F:\Sket4er\Stratovarius – Enigma (Intermission II)  2018\09 Fireborn.wav

     Peak level 96.0 %
     Extraction speed 2.7 X
     Track quality 99.9 %
     Test CRC 85963D9E
     Copy CRC 85963D9E
     Track not present in AccurateRip database
     Copy OK

Track 10

     Filename F:\Sket4er\Stratovarius – Enigma (Intermission II)  2018\10 Giants.wav

     Peak level 93.8 %
     Extraction speed 3.4 X
     Track quality 100.0 %
     Test CRC 3293AE4E
     Copy CRC 3293AE4E
     Track not present in AccurateRip database
     Copy OK

Track 11

     Filename F:\Sket4er\Stratovarius – Enigma (Intermission II)  2018\11 Castaway.wav

     Peak level 93.8 %
     Extraction speed 3.5 X
     Track quality 100.0 %
     Test CRC D64179D5
     Copy CRC D64179D5
     Track not present in AccurateRip database
     Copy OK

Track 12

     Filename F:\Sket4er\Stratovarius – Enigma (Intermission II)  2018\12 Old Man And The Sea.wav

     Peak level 88.5 %
     Extraction speed 3.6 X
     Track quality 100.0 %
     Test CRC D0A38299
     Copy CRC D0A38299
     Track not present in AccurateRip database
     Copy OK

Track 13

     Filename F:\Sket4er\Stratovarius – Enigma (Intermission II)  2018\13 Fantasy (Orchestral Version).wav

     Peak level 99.4 %
     Extraction speed 2.9 X
     Track quality 99.9 %
     Test CRC D470EE99
     Copy CRC D470EE99
     Track not present in AccurateRip database
     Copy OK

Track 14

     Filename F:\Sket4er\Stratovarius – Enigma (Intermission II)  2018\14 Shine In The Dark (Orchestral Version).wav

     Peak level 99.4 %
     Extraction speed 3.0 X
     Track quality 99.9 %
     Test CRC 2C5500B7
     Copy CRC 2C5500B7
     Track not present in AccurateRip database
     Copy OK

Track 15

     Filename F:\Sket4er\Stratovarius – Enigma (Intermission II)  2018\15 Unbreakable (Orchestral Version).wav

     Peak level 99.4 %
     Extraction speed 4.0 X
     Track quality 100.0 %
     Test CRC D375C4EE
     Copy CRC D375C4EE
     Track not present in AccurateRip database
     Copy OK

Track 16

     Filename F:\Sket4er\Stratovarius – Enigma (Intermission II)  2018\16 Winter Skies (Orchestral Version).wav

     Peak level 99.4 %
     Extraction speed 3.4 X
     Track quality 99.9 %
     Test CRC DA1F10B2
     Copy CRC DA1F10B2
     Track not present in AccurateRip database
     Copy OK

None of the tracks are present in the AccurateRip database

No errors occurred

End of status report

Код:

REM GENRE "Power Metal"
REM DATE 2018
REM DISCID F7119410
REM COMMENT "ExactAudioCopy v1.3"
PERFORMER "Stratovarius"
TITLE "Enigma: Intermission II"
REM COMPOSER ""
FILE "01 Enigma.wav" WAVE
  TRACK 01 AUDIO
    TITLE "Enigma"
    PERFORMER "Stratovarius"
    REM COMPOSER ""
    INDEX 01 00:00:00
FILE "02 Hunter.wav" WAVE
  TRACK 02 AUDIO
    TITLE "Hunter"
    PERFORMER "Stratovarius"
    REM COMPOSER ""
    INDEX 01 00:00:00
FILE "03 Hollowed.wav" WAVE
  TRACK 03 AUDIO
    TITLE "Hollowed"
    PERFORMER "Stratovarius"
    REM COMPOSER ""
    INDEX 01 00:00:00
FILE "04 Burn Me Down.wav" WAVE
  TRACK 04 AUDIO
    TITLE "Burn Me Down"
    PERFORMER "Stratovarius"
    REM COMPOSER ""
    INDEX 01 00:00:00
FILE "05 Last Shore.wav" WAVE
  TRACK 05 AUDIO
    TITLE "Last Shore"
    PERFORMER "Stratovarius"
    REM COMPOSER ""
    INDEX 01 00:00:00
FILE "06 Kill It With Fire.wav" WAVE
  TRACK 06 AUDIO
    TITLE "Kill It With Fire"
    PERFORMER "Stratovarius"
    REM COMPOSER ""
    INDEX 01 00:00:00
FILE "07 Oblivion.wav" WAVE
  TRACK 07 AUDIO
    TITLE "Oblivion"
    PERFORMER "Stratovarius"
    REM COMPOSER ""
    INDEX 01 00:00:00
FILE "08 Second Sight.wav" WAVE
  TRACK 08 AUDIO
    TITLE "Second Sight"
    PERFORMER "Stratovarius"
    REM COMPOSER ""
    INDEX 01 00:00:00
FILE "09 Fireborn.wav" WAVE
  TRACK 09 AUDIO
    TITLE "Fireborn"
    PERFORMER "Stratovarius"
    REM COMPOSER ""
    INDEX 01 00:00:00
FILE "10 Giants.wav" WAVE
  TRACK 10 AUDIO
    TITLE "Giants"
    PERFORMER "Stratovarius"
    REM COMPOSER ""
    INDEX 01 00:00:00
FILE "11 Castaway.wav" WAVE
  TRACK 11 AUDIO
    TITLE "Castaway"
    PERFORMER "Stratovarius"
    REM COMPOSER ""
    INDEX 01 00:00:00
FILE "12 Old Man And The Sea.wav" WAVE
  TRACK 12 AUDIO
    TITLE "Old Man And The Sea"
    PERFORMER "Stratovarius"
    REM COMPOSER ""
    INDEX 01 00:00:00
FILE "13 Fantasy (Orchestral Version).wav" WAVE
  TRACK 13 AUDIO
    TITLE "Fantasy (Orchestral Version)"
    PERFORMER "Stratovarius"
    REM COMPOSER ""
    INDEX 01 00:00:00
FILE "14 Shine In The Dark (Orchestral Version).wav" WAVE
  TRACK 14 AUDIO
    TITLE "Shine In The Dark (Orchestral Version)"
    PERFORMER "Stratovarius"
    REM COMPOSER ""
    INDEX 01 00:00:00
FILE "15 Unbreakable (Orchestral Version).wav" WAVE
  TRACK 15 AUDIO
    TITLE "Unbreakable (Orchestral Version)"
    PERFORMER "Stratovarius"
    REM COMPOSER ""
    INDEX 01 00:00:00
FILE "16 Winter Skies (Orchestral Version).wav" WAVE
  TRACK 16 AUDIO
    TITLE "Winter Skies (Orchestral Version)"
    PERFORMER "Stratovarius"
    REM COMPOSER ""
    INDEX 01 00:00:00






pb.wtf



Скачать Stratovarius - Enigma через торрент https://i106.fastpic.ru/big/2019/0105/2c/4bb385dbf341cd01737c3fceb8efd92c.png Скачать фильм Stratovarius - Enigma через торрент бесплантно в хорошем качестве Трэклист Enigma (4:22) Hunter (3:30) Hollowed (5:53) Burn Me Down (3:43) Last Shore (5:33) Kill It With ... 10 10 1
Торрент: Зарегистрирован [2019-01-05 10:43] · скачан: 31 раз
Статус: √ проверено
Размер: 525 MB
Как cкачать? Как скачать Stratovarius - Enigma через торрент | qTorrent

28-11-2019 20:33  

Отключить всю рекламу на сайте

    Дорогой пользователь! Огромная просьба, поблагодарите релизера, оцените раздачу и оставьте свои комментарий, если Вы скачали Stratovarius - Enigma через торрент бесплатно! Внесите свою лепту в развитие PiratBit!
    Комментировать посты могут только пользователи прошедшие не сложную регистрацию
    Показать сообщения:    

    Stratovarius - Enigma через торрент
    Скачать бесплатно Stratovarius - Enigma
    Stratovarius - Enigma скачать торрент
    Stratovarius - Enigma смотреть онлайн
    Cкачать фильм Stratovarius - Enigma бесплатно
    Stratovarius - Enigma скачать торрент в хорошем качестве
    Stratovarius - Enigma смотреть онлайн бесплатно в хорошем качестве


    Вы не можете начинать темы
    Вы не можете отвечать на сообщения
    Вы не можете редактировать свои сообщения
    Вы не можете удалять свои сообщения
    Вы не можете голосовать в опросах
    Вы не можете прикреплять файлы к сообщениям
    Вы можете скачивать файлы