Ссылка на приватное зеркало нашего сайта всего за 1$. Внимание количество ограничено!!!

2 сезон

iTunes

1 сезон

1

2 сезон

2 сезон

iTunes

1 сезон

RePack

30

Ultimate

ВАЖНО

ИГРА 18+

pack

RePack

MK11
pack

Забери бонус

RePack

jed

!!Акция!!

Alien_Rage

RePack

fifa19

RePack

Assassins Creed: Odyssey

RePack

NEED FOR SPEED™ PAYBACK

4 сезон

9 сезон

Бесстыжие 9 сезон

Все сериалы

все сериалы на PB.wtf

RePack

FAR CRY 5
  

Агент Картер (сериал 2015 – 2016)/ Agent Carter (Дженнифер Гетцингер, Метин Хусейн, Дэвид Платт) [2015 , фантастика, боевик, приключения, BDRip-HEVC 1080p 12 bit 60 FPS] Дубляж pb.wtf

Агент Картер через торрент pb.wtf

Размер: 37.49 GB | Добавлен: 1 год 9 мес. назад | Торрент скачан:3 раза
Скачать  

05-01-2019 12:08 Агент Картер Скачать торрент  


««Sometimes the best man for the job... is a woman»»


Год выпуска: 2015
Страна: США
Жанр: фантастика, боевик, приключения

Продолжительность: ~00:42:40
Перевод: Дубляж
Режиссер: Дженнифер Гетцингер, Метин Хусейн, Дэвид Платт
В ролях:

Хейли Этвелл (Peggy Carter), Джеймс Д’Арси (Edwin Jarvis), Энвер Гьокай (Daniel Sousa), Чад Майкл Мюррэй (Jack Thompson), Винн Эверетт (Whitney Frost), Регги Остин (Jason Wilkes), Бриджет Риган (Dottie Underwood), Лесли Бун (Rose), Шей Уигэм (Roger Dooley), Линдси Фонсека (Angie Martinelli), Карри Грэм (Calvin Chadwick), Лотта Вербек (Ana Jarvis)
Описание:
История Пегги Картер. В 1946 году мир нанес Пегги серьезный удар, когда она оказывается в неудобном для нее положении с возвращением домой мужчин со сражений за границей. Работая на секретную организацию СНР (Стратегический Научный Резерв), Пегги должна найти баланс между административной работой и секретными миссиями для Говарда Старка, одновременно пытаясь жить нормальной жизнью одинокой женщины в Америке после утраты любви всей ее жизни - Стива Роджерса.
Мировая премьера: 6 января 2015

Качество: BDRip 1080p DD2D3
Формат: MKV
Видео: V_MPEGH/ISO/HEVC, 1920x1080 (16:9), 3930 kbps, 59,940 fps, 0,032 bpp
Аудио: русский / AC3 / 2.0 / 48 kHz / 192 kbps / ||


Общее
Уникальный идентификатор : 238234695147271117809509965017479655868 (0xB33A55544D87886B84831D2463E431BC)
Полное имя : D:\Агент Картер - Agent Carter (2015 - 2016) BDRip - HEVC 1080p 12 bit 60 FPS\Сезон 1\1. Это еще не конец - Now is Not The End.mkv
Формат : Matroska
Версия формата : Version 4
Размер файла : 1,23 Гбайт
Продолжительность : 42 м. 40 с.
Общий поток : 4126 Кбит/сек
Дата кодирования : UTC 2018-12-24 19:16:47
Программа кодирования : mkvmerge v10.0.0 ('To Drown In You') 32bit
Библиотека кодирования : libebml v1.3.4 + libmatroska v1.4.5
Attachments : poster

Видео
Идентификатор : 1
Формат : HEVC
Формат/Информация : High Efficiency Video Coding
Профиль формата : @L4.1@Main
Идентификатор кодека : V_MPEGH/ISO/HEVC
Продолжительность : 42 м. 40 с.
Битрейт : 3930 Кбит/сек
Ширина : 1920 пикселей
Высота : 1080 пикселей
Соотношение сторон : 16:9
Режим частоты кадров : Постоянный
Частота кадров : 59,940 (60000/1001) кадров/сек
Цветовое пространство : YUV
Субдискретизация насыщенности : 4:2:0
Битовая глубина : 12 бит
Бит/(Пиксели*Кадры) : 0.032
Размер потока : 1,17 Гбайт (95%)
Библиотека кодирования : x265 2.3+33-0b7d54dbb71a87a0:[Windows][MSVC 1800][64 bit] 12bit: KG7x [x265.ru]
Настройки программы : cpuid=1173503 / frame-threads=2 / numa-pools=4 / wpp / no-pmode / no-pme / no-psnr / no-ssim / log-level=2 / input-csp=1 / input-res=1920x1080 / interlace=0 / total-frames=153466 / level-idc=41 / high-tier=1 / uhd-bd=0 / ref=3 / no-allow-non-conformance / no-repeat-headers / annexb / no-aud / no-hrd / info / hash=0 / no-temporal-layers / open-gop / min-keyint=25 / keyint=250 / bframes=4 / b-adapt=2 / b-pyramid / bframe-bias=0 / rc-lookahead=20 / lookahead-slices=6 / scenecut=40 / no-intra-refresh / ctu=64 / min-cu-size=8 / no-rect / no-amp / max-tu-size=32 / tu-inter-depth=1 / tu-intra-depth=1 / limit-tu=0 / rdoq-level=0 / dynamic-rd=0.00 / no-ssim-rd / signhide / no-tskip / nr-intra=0 / nr-inter=0 / no-constrained-intra / strong-intra-smoothing / max-merge=2 / limit-refs=3 / no-limit-modes / me=1 / subme=2 / merange=57 / temporal-mvp / weightp / no-weightb / no-analyze-src-pics / deblock=0:0 / no-sao / no-sao-non-deblock / rd=3 / no-early-skip / no-rskip / no-fast-intra / no-tskip-fast / no-cu-lossless / no-b-intra / rdpenalty=0 / psy-rd=4.00 / psy-rdoq=0.00 / no-rd-refine / analysis-mode=0 / no-lossless / cbqpoffs=0 / crqpoffs=0 / rc=abr / bitrate=3926 / qcomp=0.60 / qpstep=1 / stats-write=0 / stats-read=2 / cplxblur=20.0 / qblur=0.5 / ipratio=1.10 / pbratio=1.00 / aq-mode=0 / aq-strength=0.00 / no-cutree / zone-count=0 / no-strict-cbr / qg-size=64 / rc-grain / qpmax=69 / qpmin=0 / sar=1 / overscan=0 / videoformat=5 / range=0 / colorprim=2 / transfer=2 / colormatrix=2 / chromaloc=0 / display-window=0 / max-cll=0,0 / min-luma=0 / max-luma=4095 / log2-max-poc-lsb=8 / vui-timing-info / vui-hrd-info / slices=1 / opt-qp-pps / opt-ref-list-length-pps / no-multi-pass-opt-rps / scenecut-bias=0.05 / no-opt-cu-delta-qp / no-aq-motion / no-hdr / no-hdr-opt / refine-level=5 / no-limit-sao
Default : Да
Forced : Нет

Аудио
Идентификатор : 2
Формат : AC-3
Формат/Информация : Audio Coding 3
Коммерческое название : Dolby Digital
Идентификатор кодека : A_AC3
Продолжительность : 42 м. 40 с.
Вид битрейта : Постоянный
Битрейт : 192 Кбит/сек
Каналы : 2 канала
Channel layout : L R
Частота : 48,0 КГц
Частота кадров : 31,250 кадров/сек (1536 SPF)
Битовая глубина : 16 бит
Метод сжатия : С потерями
Размер потока : 58,6 Мбайт (5%)
Язык : Russian
ServiceKind/String : Complete Main
Default : Да
Forced : Нет
скриншот  скриншот  скриншот  скриншот  скриншот  скриншот  скриншот  
01. Это еще не конец / Now is Not The End
02. Мост и тоннель / Bridge and Tunnel
03. Течение времени / Time and Tide
04. Кнопка «Блицкриг» /The Blitzkrieg Button
05. Железный потолок /The Iron Ceiling
06. Грех в заблуждении /A Sin to Err
07. Капут /SNAFU
08. Прощальная речь /Valediction
Качество: BDRip 1080p DD2D3
Формат: MKV
Видео: V_MPEGH/ISO/HEVC, 1920x1080 (16:9), 9545 kbps, 59,940 fps, 0,077 bpp
Аудио: русский / AC3 / 2.0 / 48 kHz / 192 kbps / ||


Общее
Уникальный идентификатор : 178202709963783317355286532618584357927 (0x861097F18493D008AD2809BF36147C27)
Полное имя : D:\Агент Картер - Agent Carter (2015 - 2016) BDRip - HEVC 1080p 12 bit 60 FPS\Сезон 2\1. The Lady in the Lake - Леди в озере.mkv
Формат : Matroska
Версия формата : Version 4
Размер файла : 2,88 Гбайт
Продолжительность : 42 м. 23 с.
Общий поток : 9741 Кбит/сек
Дата кодирования : UTC 2019-02-24 16:05:45
Программа кодирования : mkvmerge v10.0.0 ('To Drown In You') 32bit
Библиотека кодирования : libebml v1.3.4 + libmatroska v1.4.5
Attachments : poster

Видео
Идентификатор : 1
Формат : HEVC
Формат/Информация : High Efficiency Video Coding
Профиль формата : @L4.1@Main
Идентификатор кодека : V_MPEGH/ISO/HEVC
Продолжительность : 42 м. 23 с.
Битрейт : 9545 Кбит/сек
Ширина : 1920 пикселей
Высота : 1080 пикселей
Соотношение сторон : 16:9
Режим частоты кадров : Постоянный
Частота кадров : 59,940 (60000/1001) кадров/сек
Цветовое пространство : YUV
Субдискретизация насыщенности : 4:2:0
Битовая глубина : 12 бит
Бит/(Пиксели*Кадры) : 0.077
Размер потока : 2,83 Гбайт (98%)
Библиотека кодирования : x265 2.3+33-0b7d54dbb71a87a0:[Windows][MSVC 1800][64 bit] 12bit: KG7x [x265.ru]
Настройки программы : cpuid=1173503 / frame-threads=2 / numa-pools=4 / wpp / no-pmode / no-pme / no-psnr / no-ssim / log-level=2 / input-csp=1 / input-res=1920x1080 / interlace=0 / total-frames=152463 / level-idc=41 / high-tier=1 / uhd-bd=0 / ref=3 / no-allow-non-conformance / no-repeat-headers / annexb / no-aud / no-hrd / info / hash=0 / no-temporal-layers / open-gop / min-keyint=25 / keyint=250 / bframes=4 / b-adapt=2 / b-pyramid / bframe-bias=0 / rc-lookahead=20 / lookahead-slices=6 / scenecut=40 / no-intra-refresh / ctu=64 / min-cu-size=8 / no-rect / no-amp / max-tu-size=32 / tu-inter-depth=1 / tu-intra-depth=1 / limit-tu=0 / rdoq-level=0 / dynamic-rd=0.00 / no-ssim-rd / signhide / no-tskip / nr-intra=0 / nr-inter=0 / no-constrained-intra / strong-intra-smoothing / max-merge=2 / limit-refs=3 / no-limit-modes / me=1 / subme=2 / merange=57 / temporal-mvp / weightp / no-weightb / no-analyze-src-pics / deblock=0:0 / no-sao / no-sao-non-deblock / rd=3 / no-early-skip / no-rskip / no-fast-intra / no-tskip-fast / no-cu-lossless / no-b-intra / rdpenalty=0 / psy-rd=4.00 / psy-rdoq=0.00 / no-rd-refine / analysis-mode=0 / no-lossless / cbqpoffs=0 / crqpoffs=0 / rc=abr / bitrate=9537 / qcomp=0.60 / qpstep=1 / stats-write=0 / stats-read=2 / cplxblur=20.0 / qblur=0.5 / ipratio=1.10 / pbratio=1.00 / aq-mode=0 / aq-strength=0.00 / no-cutree / zone-count=0 / no-strict-cbr / qg-size=64 / rc-grain / qpmax=69 / qpmin=0 / sar=1 / overscan=0 / videoformat=5 / range=0 / colorprim=2 / transfer=2 / colormatrix=2 / chromaloc=0 / display-window=0 / max-cll=0,0 / min-luma=0 / max-luma=4095 / log2-max-poc-lsb=8 / vui-timing-info / vui-hrd-info / slices=1 / opt-qp-pps / opt-ref-list-length-pps / no-multi-pass-opt-rps / scenecut-bias=0.05 / no-opt-cu-delta-qp / no-aq-motion / no-hdr / no-hdr-opt / refine-level=5 / no-limit-sao
Default : Да
Forced : Нет

Аудио
Идентификатор : 2
Формат : AC-3
Формат/Информация : Audio Coding 3
Коммерческое название : Dolby Digital
Идентификатор кодека : A_AC3
Продолжительность : 42 м. 23 с.
Вид битрейта : Постоянный
Битрейт : 192 Кбит/сек
Каналы : 2 канала
Channel layout : L R
Частота : 48,0 КГц
Частота кадров : 31,250 кадров/сек (1536 SPF)
Битовая глубина : 16 бит
Метод сжатия : С потерями
Размер потока : 58,2 Мбайт (2%)
Язык : Russian
ServiceKind/String : Complete Main
Default : Да
Forced : Нет
скриншот  скриншот  скриншот  скриншот  скриншот  скриншот  скриншот  
01: The Lady in the Lake / Леди в озере
02: A View in the Dark /Взгляд в темноту
03: Better Angels / Ангелы получше
04: Smoke and Mirrors / Дым и зеркала
05: The Atomic Job / Ядерное дело
06: Life of the Party / Душа компании
07: Monsters / Монстры
08: The Edge of Mystery / На пороге тайны
09: A Little Song and Dance / Немного песен и танцев
10: Hollywood Ending / Голливудский финал

© Оформление by DD2D3 pb.wtf



Скачать Агент Картер через торрент http://funkyimg.com/i/2RLh6.png Скачать фильм Агент Картер через торрент бесплантно в хорошем качестве Описание: История Пегги Картер. В 1946 году мир нанес Пегги серьезный удар, когда она оказывается в неудобном для нее положении с ... 10 10 2
Info! Золотая раздача, скачанное не засчитывается.
Торрент: Зарегистрирован [2019-02-24 16:43] · скачан: 3 раз
Статус: √ проверено
Размер: 37.49 GB
Как cкачать? Как скачать Агент Картер через торрент | qTorrent



Последний раз редактировалось: dd2d3 (2019-02-24 16:43), всего редактировалось 1 раз

28-11-2019 20:33  

Отключить всю рекламу на сайте

05-01-2019 14:03 Агент Картер Скачать торрент  

Неплохой сериал, один раз посмотреть можно. Для тех кто не знает кто такая Агент Картер, можно и не начинать. Посмотрите фильм Первый мститель, а потом уже сериал.pb.wtf



    Дорогой пользователь! Огромная просьба, поблагодарите релизера, оцените раздачу и оставьте свои комментарий, если Вы скачали Агент Картер через торрент бесплатно! Внесите свою лепту в развитие PiratBit!
    Комментировать посты могут только пользователи прошедшие не сложную регистрацию
    Показать сообщения:    

    Агент Картер через торрент
    Скачать бесплатно Агент Картер
    Агент Картер скачать торрент
    Агент Картер смотреть онлайн
    Cкачать фильм Агент Картер бесплатно
    Агент Картер скачать торрент в хорошем качестве
    Агент Картер смотреть онлайн бесплатно в хорошем качестве


    Вы не можете начинать темы
    Вы не можете отвечать на сообщения
    Вы не можете редактировать свои сообщения
    Вы не можете удалять свои сообщения
    Вы не можете голосовать в опросах
    Вы не можете прикреплять файлы к сообщениям
    Вы можете скачивать файлы