Присоединяйтесь к нам в Telegram!, здесь всегда актуальный адрес сайта, оперативная поддержка и многое другое!!

>

5.9

iTunes

7.4

iTunes

9.4

1 сезон

1

7.4

2 сезон

7.2

iTunes

7.3

1 сезон

13

6.1

iTunes

8.3

GOG

30

ULTIMATE

pack

9.9

Лицензия

ВАЖНО

ИГРА 18+

pack

7.3

RePack

MK11

7.7

RePack

jed

7.8

RePack

fifa19

8.5

RePack

RDR2

RePack

NEED FOR SPEED™ PAYBACK

5 сезон

9 сезон

Бесстыжие 9 сезон

Все сериалы

все сериалы на PB.wtf

RePack

FAR CRY 5

Anonymous, доброе утро, мы катастрофически не успеваем собрать деньги на оплату серверов, помогите нам пожалуйста 5,10,15р., для нас важна любая помощь . В качестве благодарности мы отключим Вам всю рекламу на сайте (укажите свой ник в строку Ваше имя)!

×
  
Magnet ссылка

Даша Астафьева - Зима [2018 г., Поп, WEBRip 1080p] pb.wtf

Даша Астафьева - Зима через торрент pb.wtf

Размер: 112 MB | Добавлен: 2 года 10 мес. назад | Торрент скачан:7 раз
Смотреть онлайн Даша Астафьева - Зима | Скачать    Ребята, помогите собрать деньги на оплату серверов!!!

05-01-2019 13:25 Даша Астафьева - Зима Скачать торрент  

Даша Астафьева - Зима
Год выпуска: 2018
Страна: Украина
Жанр: Поп
Продолжительность: 00:03:06

В ролях: Даша Астафьева

Описание: Популярная украинская певица и актриса Даша Астафьева, которая часто радует поклонников соблазнительными снимками в белье, показала черно-белый клип на песню «Зима», слова и музыку к которой написал Юрко Юрченко.«Эта песня действительно о любви. И о том, что находит каждый из нас в этой новогодней сказке. Хочется верить, что все, кто услышит ее, будут частью моего волшебного состояния — и в поездах, и в самолетах. А главное, здесь — на земле», — написала певица в Instagram.Съемки видео проходили в Париже. В ролике Даша предстала в нескольких образах. В романтическом клипе певица гуляет по улицам французской столицы, в леопардовой шубе и черном костюме позирует на фоне Эйфелевой башни.

Качество: WEBRip 1080p
Формат: MPEG
Видео кодек: AVC
Аудио кодек: AAC
Видео: AVC, 1920x1080 , 25,0fps, 4950 Kbps
Аудио#1: AAC , 2 ch , 44,1 kHz , 192 kbps
скриншот   скриншот   скриншот   скриншот   скриншот   скриншот   скриншот   скриншот   скриншот  

Общее
Полное имя : D:Даша Астафьева - Зима. by Аристократ.mp4
Формат : MPEG-4
Профиль формата : Base Media
Идентификатор кодека : isom
Размер файла : 112 Мбайт
Продолжительность : 3 м. 6 с.
Общий поток : 5047 Кбит/сек
Программа кодирования : Lavf57.83.100

Видео
Идентификатор : 1
Формат : AVC
Формат/Информация : Advanced Video Codec
Профиль формата : High@L4.0
Параметр CABAC формата : Да
Параметр ReFrames формата : 4 кадра
Идентификатор кодека : avc1
Идентификатор кодека/Информация : Advanced Video Coding
Продолжительность : 3 м. 6 с.
Битрейт : 4950 Кбит/сек
Ширина : 1920 пикселей
Высота : 1080 пикселей
Соотношение сторон : 16:9
Режим частоты кадров : Постоянный
Частота кадров : 25,000 кадров/сек
Цветовое пространство : YUV
Субдискретизация насыщенности : 4:2:0
Битовая глубина : 8 бит
Тип развёртки : Прогрессивная
Бит/(Пиксели*Кадры) : 0.095
Размер потока : 108 Мбайт (96%)
Библиотека кодирования : x264 core 148
Настройки программы : cabac=1 / ref=2 / deblock=1:0:0 / analyse=0x3:0x113 / me=hex / subme=6 / psy=1 / psy_rd=1.00:0.00 / mixed_ref=1 / me_range=16 / chroma_me=1 / trellis=1 / 8x8dct=1 / cqm=0 / deadzone=21,11 / fast_pskip=1 / chroma_qp_offset=-2 / threads=6 / lookahead_threads=1 / sliced_threads=0 / nr=0 / decimate=1 / interlaced=0 / bluray_compat=0 / constrained_intra=0 / bframes=3 / b_pyramid=2 / b_adapt=1 / b_bias=0 / direct=1 / weightb=1 / open_gop=0 / weightp=1 / keyint=250 / keyint_min=25 / scenecut=40 / intra_refresh=0 / rc_lookahead=30 / rc=cbr / mbtree=1 / bitrate=4950 / ratetol=1.0 / qcomp=0.60 / qpmin=0 / qpmax=69 / qpstep=4 / vbv_maxrate=4950 / vbv_bufsize=9900 / nal_hrd=none / filler=0 / ip_ratio=1.40 / aq=1:1.00

Аудио
Идентификатор : 2
Формат : AAC
Формат/Информация : Advanced Audio Codec
Профиль формата : LC
Идентификатор кодека : 40
Продолжительность : 3 м. 6 с.
Вид битрейта : Постоянный
Битрейт : 192 Кбит/сек
Каналы : 2 канала
Расположение каналов : Front: L R
Частота : 44,1 КГц
Метод сжатия : С потерями
Размер потока : 4,27 Мбайт (4%)

pb.wtf



Скачать Даша Астафьева - Зима через торрент https://pic1.kartinco.top/images/12/4zphi.jpg Скачать, смотреть онлайн Даша Астафьева - Зима [2018 г., Поп, WEBRip 1080p] бесплантно в хорошем качестве Описание: Популярная украинская певица и актриса Даша Астафьева, которая часто радует поклонников соблазнительными снимками в белье, ... 5.5 10 2
Торрент: Зарегистрирован [2019-01-05 13:25] · скачан: 7 раз
Статус: √ проверено
Размер: 112 MB
Как cкачать? Как скачать Даша Астафьева - Зима через торрент | UTorrent

28-11-2019 20:33  

Отключить всю рекламу на сайте

    Дорогой пользователь! Огромная просьба, поблагодарите релизера, оцените раздачу и оставьте свои комментарий, если Вы скачали Даша Астафьева - Зима через торрент бесплатно!
    Комментировать посты могут только пользователи прошедшие не сложную регистрацию
    Показать сообщения:    

    Даша Астафьева - Зима через торрент
    Скачать бесплатно Даша Астафьева - Зима
    Даша Астафьева - Зима скачать торрент
    Даша Астафьева - Зима смотреть онлайн
    Cкачать фильм Даша Астафьева - Зима бесплатно
    Даша Астафьева - Зима скачать торрент в хорошем качестве
    Даша Астафьева - Зима смотреть онлайн бесплатно в хорошем качестве


    Вы не можете начинать темы
    Вы не можете отвечать на сообщения
    Вы не можете редактировать свои сообщения
    Вы не можете удалять свои сообщения
    Вы не можете голосовать в опросах
    Вы не можете прикреплять файлы к сообщениям
    Вы можете скачивать файлы