Достать ножи: Стеклянная луковица

MVO

Добыча

Дубляж

Уэнсдэй

1 сезон

Тор

Дубляж

13 клиническая

1 сезон

Жестокая ночь

MVO

Одни из нас

1 сезон

Deluxe

pack

Рекомендуем

30

Пиратка

ВАЖНО

ВАЖНО

Ghostwire

Пиратка

jed

RePack

nioh2

RePack

RDR2

RePack

NEED FOR SPEED™ PAYBACK

RePack

скачать торрент

Кинопоиск HD

Острые козырьки 6 сезон

6 сезон

FAR CRY 6

RePack

скачать торрент

Лицензия

скачать торрент

MVO

1

1 сезон

скачать торрент

1 сезон

скачать торрент

Лицензия

  

Настоящие охотники за привидениями / The Real Ghostbusters / Сезон: 1-7 / Серии: 1 - 136 из 136 (Ричард Рэйнис) [1986-1991, комедия, приключения, DVDrip, Дубляж] (ТРК Останкино, СТС)

Настоящие охотники за привидениями через торрент pb.wtf

Размер: 118.86 GB | Добавлен: 1 год назад | Торрент скачан:28 раз
Смотреть онлайн | Скачать | Поддержите нас   

05-01-2019 15:51 Настоящие охотники за привидениями Скачать торрент  

Настоящие охотники за привидениями / The Real Ghostbusters Год выпуска: 1986-1991
Страна: США
Жанр: комедия, приключения
Продолжительность: 136 х ~00:23:00
Перевод: Дублированный

Режиссёр: Ричард Рэйнис

Описание:

Американский мультсериал, основанный на киноленте о приключениях охотников за привидениями. Создавался с 1986 по 1991 год режиссёрами Дэном Эйкройдом и Гарольдом Рамисом, всего вышло 136 серий (7 сезонов). Снимался на студии Columbia Pictures.

Мультсериал об отважной четвёрке учёных-парапсихологов, решивших открыть свой бизнес в сфере устранения паранормальных явлений. Обладая непревзойдёнными научными знаниями в исследовании потустороннего мира, они - единственные, кто может противостоять наплыву призраков и демонов, заполонивших Нью-Йорк.

rating

Качество: DVD-Remux
Формат: MKV
Видео NTSC: [MPEG-2 Video | 720x480 | 29.970 fps | ~4 928 Kbps | ~0.476 bit/pixel]
Видео PAL_: [MPEG-2 Video | 720x576 | 25.000 fps | ~4 890 Kbps | ~0.472 bit/pixel] | 3x06-07,12; 4x01-02
Субтитры: нет
Переводы и озвучки:

Аудиодорожка 01: AC3 | 48khz | 2ch | 224 kb/s | Профессиональный (дублированный): | Останкино (1993-1994) | 1x01-2x19, 2x21-5x03
Аудиодорожка 02: AC3 | 48khz | 2ch | 256 kb/s | Профессиональный (дублированный): | Русский дубляж (Телеканал СТС 2009-2011) | 2x20, 5x04-7x04
Аудиодорожка 03: AC3 | 48khz | 2ch | 192 kb/s | Оригинал: | English | 1x01-7x04




Общее
Уникальный идентификатор : 338732430123175276971726804659014588718 (0xFED57E37465FC4EBD1861CA08575D92E)
Полное имя : ...\Real Ghostbusters\Season 1\001 Ghosts 'R Us {DVD} [ОСТАНКИНО'1993]+[ENG].mkv
Формат : Matroska
Версия формата : Version 4 / Version 2
Размер файла : 925 Мбайт
Продолжительность : 23 м.
Режим общего битрейта : Переменный
Общий поток : 5452 Кбит/сек
Дата кодирования : UTC 2018-10-12 17:12:24
Программа кодирования : mkvmerge v27.0.0 ('Metropolis') 64-bit
Библиотека кодирования : libebml v1.3.6 + libmatroska v1.4.9
DURATION : 00:23:43.168000000
NUMBER_OF_FRAMES : 44474
NUMBER_OF_BYTES : 34156032
_STATISTICS_WRITING_APP : mkvmerge v27.0.0 ('Metropolis') 64-bit
_STATISTICS_WRITING_DATE_UTC : 2018-10-12 17:12:24
_STATISTICS_TAGS : BPS DURATION NUMBER_OF_FRAMES NUMBER_OF_BYTES

Видео
Идентификатор : 1
Формат : MPEG Video
Версия формата : Version 2
Профиль формата : [email protected]
Параметр BVOP формата : Нет
Параметр матрицы формата : Выборочная
Идентификатор кодека : V_MPEG2
Идентификатор кодека/Информация: MPEG 1 or 2 Video
Продолжительность : 23 м.
Вид битрейта : Переменный
Битрейт : 4928 Кбит/сек
Максимальный битрейт : 9800 Кбит/сек
Ширина : 720 пикс.
Высота : 480 пикс.
Соотношение сторон : 4:3
Режим частоты кадров : Постоянный
Частота кадров : 29,970 кадр/сек
Стандарт вещания : NTSC
Цветовое пространство : YUV
Подвыборка цветности : 4:2:0
Битовая глубина : 8 бит
Тип развёртки : Чересстрочная
Порядок развёртки : Верхнее поле первое
Метод сжатия : С потерями
Бит/(Пиксели*Кадры) : 0.476
Размер потока : 836 Мбайт (90%)
Default : Да
Forced : Нет
Коэффициенты матрицы : BT.601

Аудио #1
Идентификатор : 2
Формат : AC-3
Формат/Информация : Audio Coding 3
Расширение режима : CM (complete main)
Параметр Endianness формата : Big
Идентификатор кодека : A_AC3
Продолжительность : 23 м.
Вид битрейта : Постоянный
Битрейт : 224 Кбит/сек
Каналы : 2 канала
Расположение каналов : Front: L R
Частота : 48,0 КГц
Битовая глубина : 16 бит
Метод сжатия : С потерями
Размер потока : 38,0 Мбайт (4%)
Заголовок : 1 канал Останкино 1993
Язык : Russian
Default : Да
Forced : Нет

Аудио #2
Идентификатор : 3
Формат : AC-3
Формат/Информация : Audio Coding 3
Расширение режима : CM (complete main)
Параметр Endianness формата : Big
Идентификатор кодека : A_AC3
Продолжительность : 23 м.
Вид битрейта : Постоянный
Битрейт : 192 Кбит/сек
Каналы : 2 канала
Расположение каналов : Front: L R
Частота : 48,0 КГц
Битовая глубина : 16 бит
Метод сжатия : С потерями
Размер потока : 32,6 Мбайт (4%)
Язык : English
Default : Нет
Forced : Нет
Общее
Уникальный идентификатор : 127264232158378424004115888744172677722 (0x5FBE33161F9A3027551186BB2670EA5A)
Полное имя : ...\Real Ghostbusters\Season 3\084 Sticky Business {DVD} [ОСТАНКИНО'1994]+[ENG].mkv
Формат : Matroska
Версия формата : Version 4 / Version 2
Размер файла : 891 Мбайт
Продолжительность : 22 м.
Режим общего битрейта : Переменный
Общий поток : 5424 Кбит/сек
Дата кодирования : UTC 2018-10-31 15:30:20
Программа кодирования : mkvmerge v28.0.0 ('Voice In My Head') 64-bit
Библиотека кодирования : libebml v1.3.6 + libmatroska v1.4.9
DURATION : 00:22:58.304000000
NUMBER_OF_FRAMES : 43072
NUMBER_OF_BYTES : 33079296
_STATISTICS_WRITING_APP : mkvmerge v28.0.0 ('Voice In My Head') 64-bit
_STATISTICS_WRITING_DATE_UTC : 2018-10-31 15:30:20
_STATISTICS_TAGS : BPS DURATION NUMBER_OF_FRAMES NUMBER_OF_BYTES

Видео
Идентификатор : 1
Формат : MPEG Video
Версия формата : Version 2
Профиль формата : [email protected]
Параметр BVOP формата : Нет
Параметр матрицы формата : Выборочная
Идентификатор кодека : V_MPEG2
Идентификатор кодека/Информация: MPEG 1 or 2 Video
Продолжительность : 22 м.
Вид битрейта : Переменный
Битрейт : 4900 Кбит/сек
Максимальный битрейт : 9800 Кбит/сек
Ширина : 720 пикс.
Высота : 576 пикс.
Соотношение сторон : 4:3
Режим частоты кадров : Постоянный
Частота кадров : 25,000 кадр/сек
Стандарт вещания : PAL
Цветовое пространство : YUV
Подвыборка цветности : 4:2:0
Битовая глубина : 8 бит
Тип развёртки : Чересстрочная
Порядок развёртки : Верхнее поле первое
Метод сжатия : С потерями
Бит/(Пиксели*Кадры) : 0.473
Размер потока : 805 Мбайт (90%)
Default : Да
Forced : Нет
Коэффициенты матрицы : BT.601

Аудио #1
Идентификатор : 2
Формат : AC-3
Формат/Информация : Audio Coding 3
Расширение режима : CM (complete main)
Параметр Endianness формата : Big
Идентификатор кодека : A_AC3
Продолжительность : 22 м.
Вид битрейта : Постоянный
Битрейт : 224 Кбит/сек
Каналы : 2 канала
Расположение каналов : Front: L R
Частота : 48,0 КГц
Битовая глубина : 16 бит
Метод сжатия : С потерями
Размер потока : 36,8 Мбайт (4%)
Заголовок : 1 канал Останкино 1994
Язык : Russian
Default : Да
Forced : Нет

Аудио #2
Идентификатор : 3
Формат : AC-3
Формат/Информация : Audio Coding 3
Расширение режима : CM (complete main)
Параметр Endianness формата : Big
Идентификатор кодека : A_AC3
Продолжительность : 22 м.
Вид битрейта : Постоянный
Битрейт : 192 Кбит/сек
Каналы : 2 канала
Расположение каналов : Front: L R
Частота : 48,0 КГц
Битовая глубина : 16 бит
Метод сжатия : С потерями
Размер потока : 31,5 Мбайт (4%)
Язык : English
Default : Нет
Forced : Нет
скриншот  скриншот  скриншот  скриншот  скриншот  скриншот  
1x01 - Номер сезона X Номер серии

ОСТАНКИНО'1993 - дублированный перевод телеканала Останкино (1993)
ОСТАНКИНО'1994 - дублированный перевод телеканала Останкино (1994)

СТС - дублированный перевод на студии "Русский дубляж" телеканала СТС (2009-2011)

ОСТАНКИНО'1993+стс - дублированный перевод телеканала Останкино + вставка на пропуск с телеканала СТС [2x16]

[СТС+kinaman] - любительская доозвучка Павлом Гринёвым пропущенного (незаписанного?) фрагмента на СТС [5x05]

[ENG] - оригинальная (английская) звуковая дорожка
[COMM] - комментарии (английская) звуковая дорожка
{V2} - дополнительная видеодорожка

{DVD} - качество DVD (Remux)

{PAL} - видеоряд взят с немецких дисков



Скачать Настоящие охотники за привидениями через торрент https://i116.fastpic.org/big/2022/0129/ab/142bcbdb759a701d348498b0234992ab.jpeg Скачать, смотреть онлайн Настоящие охотники за привидениями бесплантно в хорошем качестве Описание:Американский мультсериал, основанный на киноленте о приключениях охотников за привидениями. Создавался с 1986 по 1991 год ... 10 10 3
Торрент: Зарегистрирован [2022-01-29 20:11] · скачан: 28 раз
Статус: √ проверено
Размер: 118.86 GB
Как cкачать? Как скачать Настоящие охотники за привидениями через торрент | UTorrent




Последний раз редактировалось: killermax2013 (2022-01-29 20:11), всего редактировалось 1 раз

28-11-2019 20:33  


Отключить вcю реклaмy на сайте, в т.ч. и в плеере онлайн просмотра!

05-01-2019 18:30 Настоящие охотники за привидениями Скачать торрент  

Раздача ПАши Кинамана,молодца



29-01-2022 20:32 Настоящие охотники за привидениями Скачать торрент  

Воу! Я могу посмотреть все серии этого мульта, что не получилось в детстве.



    Дорогой пользователь! Огромная просьба, поблагодарите релизера, оцените раздачу и оставьте свои комментарий, если Вы скачали Настоящие охотники за привидениями через торрент бесплатно!!
    Комментировать посты могут только пользователи прошедшие не сложную регистрацию
    Показать сообщения:    


    Настоящие охотники за привидениями через торрент
    Скачать бесплатно Настоящие охотники за привидениями
    Настоящие охотники за привидениями скачать торрент
    Настоящие охотники за привидениями смотреть онлайн
    Cкачать фильм Настоящие охотники за привидениями бесплатно
    Настоящие охотники за привидениями скачать торрент в хорошем качестве
    Настоящие охотники за привидениями смотреть онлайн бесплатно в хорошем качестве
    Вы не можете начинать темы
    Вы не можете отвечать на сообщения
    Вы не можете редактировать свои сообщения
    Вы не можете удалять свои сообщения
    Вы не можете голосовать в опросах
    Вы не можете прикреплять файлы к сообщениям
    Вы можете скачивать файлы
    Настоящие охотники за привидениями / The Real Ghostbusters / Сезон: 1-7 / Серии: 1 - 136 из 136 [1986-1991, комедия, приключения, DVDrip, Дубляж] смотреть онлайн, скачать торрент picoco.icu