Ссылка на приватное зеркало нашего сайта всего за 1$. Внимание количество ограничено!!!

2 сезон

iTunes

1 сезон

1

iTunes

iTunes

iTunes

1 сезон

RePack

30

ИГРА 18+

pack

ВАЖНО

!!Акция!!

Alien_RageХит недели

RePack

MK11
pack

Забери бонус

RePack

jed

!!Акция!!

Alien_Rage

RePack

fifa19

RePack

Assassins Creed: Odyssey

RePack

NEED FOR SPEED™ PAYBACK

4 сезон

9 сезон

Бесстыжие 9 сезон

Все сериалы

все сериалы на PB.wtf

RePack

FAR CRY 5
  

Арвентур (Ирина Евтеева) [2015, мультфильм, фэнтези, WEB-DL 720p] pb.wtf

Арвентур через торрент pb.wtf

Размер: 2.85 GB | Добавлен: 1 год 9 мес. назад | Торрент скачан:23 раза
Скачать  

05-01-2019 17:21 Арвентур Скачать торрент  

АрвентурГод выпуска: 2015
Страна: Россия
Жанр: мультфильм, фэнтези
Продолжительность: 01:21:08
Перевод: Не требуется
Субтитры: отсутствуют

Режиссер: Ирина Евтеева

rating

В ролях:

Сергей Дрейден, Владимир Кошевой, Валентин Цзин, Ян Нэм, Леонид Мозговой, Владимир Аджамов, Юлия Маврина

Описание:

Дилогия о воображаемой стране Арвентур, в которую чудесным образом попадают герои фильма.

Первая часть «Фанданго». Действие происходит в Петербурге голодной зимой 1921 года. В центре истории - юноша, который благодаря своим духовным устремлениям, попадает в прекрасный ирреальный мир.

Вторая часть «Тайна морского пейзажа». Император, выросший на картинах Художника, обнаруживает, что реальный мир его царства не гармоничен. Он не может принять грязь и ужас грубой действительности, так как чары Художника отвратили его от всего, чем он владеет, и заставили желать того, что у него никогда не будет.

Качество: WEB-DL 720p
Формат: MKV

Видео: h.264, 4 651 Кбит/с, 1280x694
Аудио#1: Русский, (AC3, 2 ch, 384 Кбит/с)
скриншот  скриншот  скриншот  

Общее
Уникальный идентификатор : 171725071849514190789641982271212856609 (0x81310BBA0DB9D6629B63A61BF7B1A521)
Полное имя : D:\ArvenTur.2O18.O.WEB-DL.72Op.mkv
Формат : Matroska
Версия формата : Version 2
Размер файла : 2,85 Гбайт
Продолжительность : 1 ч. 21 м.
Режим общего битрейта : Переменный
Общий поток : 5037 Кбит/сек
Дата кодирования : UTC 2019-01-03 17:04:39
Программа кодирования : mkvmerge v8.3.0 ('Over the Horizon') 64bit
Библиотека кодирования : libebml v1.3.1 + libmatroska v1.4.2

Видео
Идентификатор : 1
Формат : AVC
Формат/Информация : Advanced Video Codec
Профиль формата : High@L4.1
Параметр CABAC формата : Да
Параметр RefFrames формата : 4 кадра
Идентификатор кодека : V_MPEG4/ISO/AVC
Продолжительность : 1 ч. 21 м.
Вид битрейта : Переменный
Битрейт : 4651 Кбит/сек
Максимальный битрейт : 5500 Кбит/сек
Ширина : 1280 пикселей
Высота : 694 пикселя
Соотношение сторон : 1,85:1
Режим частоты кадров : Постоянный
Частота кадров : 23,976 (24000/1001) кадра/сек
Стандарт вещания : Component
Цветовое пространство : YUV
Субдискретизация насыщенности : 4:2:0
Битовая глубина : 8 бит
Тип развёртки : Прогрессивная
Бит/(Пиксели*Кадры) : 0.214
Размер потока : 2,58 Гбайт (90%)
Default : Да
Forced : Нет
Цветовой диапазон : Limited
Основные цвета : BT.709
Характеристики трансфера : BT.709
Коэффициенты матрицы : BT.709

Аудио
Идентификатор : 2
Формат : AC-3
Формат/Информация : Audio Coding 3
Расширение режима : CM (complete main)
Параметр Endianness формата : Big
Идентификатор кодека : A_AC3
Продолжительность : 1 ч. 21 м.
Вид битрейта : Постоянный
Битрейт : 384 Кбит/сек
Каналы : 2 канала
Расположение каналов : Front: L R
Частота : 48,0 КГц
Частота кадров : 31,250 кадров/сек (1536 spf)
Метод сжатия : С потерями
Размер потока : 223 Мбайт (8%)
Default : Да
Forced : Нет

pb.wtf



Скачать Арвентур через торрент https://a.radikal.ru/a04/1901/06/3ef9ad6fbb9d.jpg Скачать фильм Арвентур через торрент бесплантно в хорошем качестве Описание: Дилогия о воображаемой стране Арвентур, в которую чудесным образом попадают герои фильма.Первая часть «Фанданго». Действие ... 8 10 5
Торрент: Зарегистрирован [2019-01-05 17:21] · скачан: 23 раз
Статус: T временная
Размер: 2.85 GB
Как cкачать? Как скачать Арвентур через торрент | qTorrent

% Раздел Тема Автор DL S | L
T Наши фильмы (мультфильмы) cо спонсором показа (Новинки AVI/MKV) [ 1.37 GB ] Арвентур [2015 мультфильм WEB-DLRip] bober100 Скачать
1 | 0

28-11-2019 20:33  

Отключить всю рекламу на сайте

    Дорогой пользователь! Огромная просьба, поблагодарите релизера, оцените раздачу и оставьте свои комментарий, если Вы скачали Арвентур через торрент бесплатно! Внесите свою лепту в развитие PiratBit!
    Комментировать посты могут только пользователи прошедшие не сложную регистрацию
    Показать сообщения:    

    Арвентур через торрент
    Скачать бесплатно Арвентур
    Арвентур скачать торрент
    Арвентур смотреть онлайн
    Cкачать фильм Арвентур бесплатно
    Арвентур скачать торрент в хорошем качестве
    Арвентур смотреть онлайн бесплатно в хорошем качестве


    Вы не можете начинать темы
    Вы не можете отвечать на сообщения
    Вы не можете редактировать свои сообщения
    Вы не можете удалять свои сообщения
    Вы не можете голосовать в опросах
    Вы не можете прикреплять файлы к сообщениям
    Вы можете скачивать файлы