Ссылка на приватное зеркало всего за 1$. Внимание количество ограничено!!!

OK

1+1

iTunes

мы

OK

1

WEB-DLRip

Джокер

Пифагор

Ведьмак / The Witcher сериал

Лицензия

ПШазам

ОК

Оно 2

iTunes

30
pack

Вам бонус

ВАЖНО

!!Акция!!

Alien_RageХит недели

RePack

Resident Evil 21

ИГРА 18+

pack

RePack

jed

RePack

fifa19

RePack

Assassins Creed: Odyssey

RePack

NEED FOR SPEED™ PAYBACK

4 сезон

9 сезон

Бесстыжие 9 сезон

Все сериалы

все сериалы на PB.wtf

RePack

FAR CRY 5
  

Ледяная комета 3D 2: Путешественник во времени / Bing feng: Yong heng zhi men (Рэймонд Ип) [2018, фантастика, боевик, комедия, BDRip 720p] MVO [КОЛОБОК] pb.wtf

Ледяная комета 3D 2: Путешественник во времени через торрент pb.wtf

Размер: 4.41 GB | Добавлен: 1 год назад | Торрент скачан:135 раз
Скачать  

05-01-2019 17:38 Ледяная комета 3D 2: Путешественник во времени Скачать торрент  

Ледяная комета 3D 2: Путешественник во времени / Bing feng: Yong heng zhi men Год выпуска: 2018
Страна: Китай, Гонконг
Жанр: фантастика, боевик, комедия
Продолжительность: 01:28:26
Перевод: Любительский (многоголосый) | КОЛОБОК
Субтитры: отсутствуют

Режиссер: Рэймонд Ип

rating

В ролях:

Донни Йен, Ван Баоцян, Ева Хуан, Юй Кан, Саймон Ям, Ясуаки Курата, Ганс Марреро, Минова Ясуфуми

Описание:

Генерал Древнего Китая Хэ Ин находит могучий артефакт, обладающий властью над временем и пространством. Но стоит ли эта Влacть прилагающейся ответственности?

Качество: BDRip 720p
Формат: MKV

Видео: h.264,6 683 Кбит/с, 1280x534
Аудио#1: Русский (AC3, 2 ch, 448 Кбит/с)
скриншот  скриншот  скриншот  

Общее
Уникальный идентификатор : 245016975187728251787081161183830175079 (0xB8548D8D752B09CDB3DEDD509B0B6D67)
Полное имя : D:\Iceman.The.Time.Traveller.2018.P.BDRip.72Op.mkv
Формат : Matroska
Версия формата : Version 2
Размер файла : 4,41 Гбайт
Продолжительность : 1 ч. 28 м.
Режим общего битрейта : Переменный
Общий поток : 7133 Кбит/сек
Дата кодирования : UTC 2019-01-04 08:51:44
Программа кодирования : mkvmerge v8.3.0 ('Over the Horizon') 64bit
Библиотека кодирования : libebml v1.3.1 + libmatroska v1.4.2

Видео
Идентификатор : 1
Формат : AVC
Формат/Информация : Advanced Video Codec
Профиль формата : High@L4.1
Параметр CABAC формата : Да
Параметр RefFrames формата : 4 кадра
Идентификатор кодека : V_MPEG4/ISO/AVC
Продолжительность : 1 ч. 28 м.
Вид битрейта : Переменный
Битрейт : 6683 Кбит/сек
Максимальный битрейт : 7500 Кбит/сек
Ширина : 1280 пикселей
Высота : 534 пикселя
Соотношение сторон : 2,40:1
Режим частоты кадров : Постоянный
Частота кадров : 23,976 (24000/1001) кадра/сек
Стандарт вещания : Component
Цветовое пространство : YUV
Субдискретизация насыщенности : 4:2:0
Битовая глубина : 8 бит
Тип развёртки : Прогрессивная
Бит/(Пиксели*Кадры) : 0.399
Размер потока : 4,04 Гбайт (92%)
Default : Да
Forced : Нет
Цветовой диапазон : Limited
Основные цвета : BT.709
Характеристики трансфера : BT.709
Коэффициенты матрицы : BT.709

Аудио
Идентификатор : 2
Формат : AC-3
Формат/Информация : Audio Coding 3
Расширение режима : CM (complete main)
Параметр Endianness формата : Big
Идентификатор кодека : A_AC3
Продолжительность : 1 ч. 28 м.
Вид битрейта : Постоянный
Битрейт : 448 Кбит/сек
Каналы : 2 канала
Расположение каналов : Front: L R
Частота : 48,0 КГц
Частота кадров : 31,250 кадров/сек (1536 spf)
Метод сжатия : С потерями
Размер потока : 283 Мбайт (6%)
Default : Да
Forced : Нет

pb.wtf



Скачать Ледяная комета 3D 2: Путешественник во времени через торрент https://c.radikal.ru/c14/1901/6a/4f3e514059dc.jpg Скачать фильм Ледяная комета 3D 2: Путешественник во времени через торрент бесплантно в хорошем качестве Описание: Генерал Древнего Китая Хэ Ин находит могучий артефакт, обладающий властью над временем и пространством. Но стоит ли эта Влacть ... 8.2 10 5
Торрент: Зарегистрирован [2019-01-05 17:38] · скачан: 135 раз
Статус: # сомнительно
Размер: 4.41 GB
Как cкачать? Как скачать Ледяная комета 3D 2: Путешественник во времени через торрент | qTorrent

% Раздел Тема Автор DL S | L
T Фильмы (мультфильмы) cо спонсором показа (Новинки AVI/MKV) [ 1.37 GB ] Ледяная комета 3D 2: Путешественник во времени / Bing feng: Yong heng zhi men [2018 HDRip] MVO [КОЛОБОК] bober100 Скачать
1 | 0

28-11-2019 20:33  

Отключить всю рекламу на сайте

07-01-2019 05:28 Ледяная комета 3D 2: Путешественник во времени Скачать торрент  

фильм 2014 гpb.wtf



08-01-2019 09:40 Ледяная комета 3D 2: Путешественник во времени Скачать торрент  

исток59 писал(а):

фильм 2014 г

Ничего вы не понимаете - берешь фильм, пишешь в название магическую аббревиатуру 3D 2 П, дописываешь заклинание - бинг фенг ёнг хенг чи мен... и вуаля, фильма посвежела.)pb.wtf



    Дорогой пользователь! Огромная просьба, поблагодарите релизера, оцените раздачу и оставьте свои комментарий, если Вы скачали Ледяная комета 3D 2: Путешественник во времени через торрент бесплатно! Внесите свою лепту в развитие PiratBit!
    Комментировать посты могут только пользователи прошедшие не сложную регистрацию
    Показать сообщения:    

    Ледяная комета 3D 2: Путешественник во времени через торрент
    Скачать бесплатно Ледяная комета 3D 2: Путешественник во времени
    Ледяная комета 3D 2: Путешественник во времени скачать торрент
    Ледяная комета 3D 2: Путешественник во времени смотреть онлайн
    Cкачать фильм Ледяная комета 3D 2: Путешественник во времени бесплатно
    Ледяная комета 3D 2: Путешественник во времени скачать торрент в хорошем качестве
    Ледяная комета 3D 2: Путешественник во времени смотреть онлайн бесплатно в хорошем качестве


    Вы не можете начинать темы
    Вы не можете отвечать на сообщения
    Вы не можете редактировать свои сообщения
    Вы не можете удалять свои сообщения
    Вы не можете голосовать в опросах
    Вы не можете прикреплять файлы к сообщениям
    Вы можете скачивать файлы