Ссылка на приватное зеркало нашего сайта всего за 1$. Внимание количество ограничено!!!

2 сезон

iTunes

1 сезон

1

2 сезон

2 сезон

iTunes

1 сезон

RePack

30

Новинка

ВАЖНО

ИГРА 18+

pack

RePack

MK11
pack

Забери бонус

RePack

jed

!!Акция!!

Alien_Rage

RePack

fifa19

RePack

Assassins Creed: Odyssey

RePack

NEED FOR SPEED™ PAYBACK

4 сезон

9 сезон

Бесстыжие 9 сезон

Все сериалы

все сериалы на PB.wtf

RePack

FAR CRY 5
  

Готэм / Gotham / Сезон: 5 / Серии: 1-12 из 12 (Дэнни Кэннон, Т.Дж. Скотт, Дермотт Даунс) [2019, триллер, драма, криминал, WEB-DL 1080p] [MVO] (LostFilm) pb.wtf

Готэм через торрент pb.wtf

Размер: 26.46 GB | Добавлен: 1 год 7 мес. назад | Торрент скачан:54 раза
Скачать  

05-01-2019 20:23 Готэм Скачать торрент  

Готэм / Gotham◈ ✦ Год выхода: 2019
✦ Жанр: триллер, драма, криминал
✦ Страна: США
✦ Продолжительность: ~ 00:44:00
✦ Перевод: Профессиональный (многоголосый закадровый) LostFilm


✦ Режиссер: Дэнни Кэннон

✦ В ролях: Бен МакКензи, Шон Пертуи, Робин Тейлор, Забрина Гевара, Эрин Ричардс, Донал Лог, Джада Пинкетт Смит, Дэвид Мазоуз, Камрен Бикондова, Кори Майкл Смит и др.


Описание:
Новый сотрудник департамента полиции Готэма, детектив Джеймс Гордон и его напарник Харви Баллок назначаются начальником отдела полиции Готэма по расследованию убийств Сарой Эссен на самое громкое дело последних лет - убийство Томаса и Марты Уэйн. Во время расследования Гордон знакомится с сыном убитых - Брюсом Уэйном, который после смерти родителей находится под опекой своего дворецкого Альфреда. Одновременно с расследованием убийства Гордону приходится бороться с местным главарем банды Фишем Муни, а также с будущими злодеями Готэма: Селиной Кайл и Освальдом Кобблпотом. В итоге, Гордон фокусируется на дружбе с молодым Брюсом, чтобы в будущем сделать из маленького мальчика Тёмного рыцаря - защитника Готэма.


Информация о файле:
Качество: WEB-DL 1080p (NetFlix)
Формат: MKV
Видео: 1920x1080, 23.976 кадра/сек, MPEG-4 AVC, ~ 5800 Кбит/сек
Аудио Rus: AC3, 48 kHz, 3/2 (L,C,R,l,r) + LFE ch, 640 Кбит/сек | LostFilm
Аудио Eng: E-AC3, 48 kHz, 3/2 (L,C,R,l,r) + LFE ch, 640 Кбит/сек
Субтитры: Английские (Full, SDH)
Реклама: Отсутствует
Работа со звуком: serial_M

Внимание! Раздача ведётся путём добавления новых серий; при каждом добавлении создётся новый торрент. Чтобы начать докачку новой серии, пользователям необходимо сделать следующее: (1) остановить скачивание, (2) удалить старый торрент у себя из клиента (старые серии удалять не надо), (3) скачать новый торрент и запустить его у себя в клиенте вместо старого, при этом указать клиенту путь в старую папку куда и должно происходить скачивание новых серий.
Ваш клиент при этом должен произвести хеширование (проверку) старой папки (если не производит сам - помогите ему сделать это), и будет докачивать только те серии которых у вас ещё нет. Старые серии при этом не удаляются, а продолжают раздаваться!
Eсли вы уже удалили старые серии, то предотвратить повторную закачку старых серий можно, отжав галочку в соответсвующих местах при запуске нового торрента.
Общее
Уникальный идентификатор : 99969229895161512193165261234711153064 (0x4B355F93078E257173C88E5CB17DC9A8)
Полное имя : E:\Gotham (Season 5) WEB-DL 1080p\Gotham.S05E01.Year.Zero.1080p.NF.WEB-DL.DDP5.1.x264-CasStudio.mkv
Формат : Matroska
Версия формата : Version 4
Размер файла : 2,10 Гбайт
Продолжительность : 42 м. 49 с.
Режим общего битрейта : Переменный
Общий поток : 7022 Кбит/сек
Название фильма : Release by Wentworth_Miller
Дата кодирования : UTC 2019-02-24 05:58:16
Программа кодирования : mkvmerge v19.0.0 ('Brave Captain') 32-bit
Библиотека кодирования : libebml v1.3.5 + libmatroska v1.4.8

Видео
Идентификатор : 1
Формат : AVC
Формат/Информация : Advanced Video Codec
Профиль формата : Main@L4
Настройки формата : CABAC / 3 Ref Frames
Параметр CABAC формата : Да
Параметр RefFrames формата : 3 кадра
Идентификатор кодека : V_MPEG4/ISO/AVC
Продолжительность : 42 м. 48 с.
Вид битрейта : Переменный
Битрейт : 5800 Кбит/сек
Максимальный битрейт : 8700 Кбит/сек
Ширина : 1920 пикселей
Высота : 1080 пикселей
Соотношение сторон : 16:9
Режим частоты кадров : Постоянный
Частота кадров : 23,976 (24000/1001) кадра/сек
Цветовое пространство : YUV
Субдискретизация насыщенности : 4:2:0
Битовая глубина : 8 бит
Тип развёртки : Прогрессивная
Бит/(Пиксели*Кадры) : 0.117
Размер потока : 1,72 Гбайт (82%)
Библиотека кодирования : x264 core 148 r2715 7e75228
Настройки программы : cabac=1 / ref=3 / deblock=1:0:0 / analyse=0x1:0x111 / me=umh / subme=10 / psy=1 / psy_rd=1.00:0.00 / mixed_ref=1 / me_range=24 / chroma_me=1 / trellis=2 / 8x8dct=0 / cqm=0 / deadzone=21,11 / fast_pskip=1 / chroma_qp_offset=-2 / threads=8 / lookahead_threads=1 / sliced_threads=0 / nr=0 / decimate=1 / interlaced=0 / bluray_compat=0 / stitchable=1 / constrained_intra=0 / bframes=2 / b_pyramid=0 / b_adapt=2 / b_bias=0 / direct=3 / weightb=1 / open_gop=0 / weightp=2 / keyint=48 / keyint_min=25 / scenecut=0 / intra_refresh=0 / rc_lookahead=48 / rc=2pass / mbtree=1 / bitrate=5800 / ratetol=1.0 / qcomp=0.50 / qpmin=6 / qpmax=51 / qpstep=4 / cplxblur=20.0 / qblur=0.5 / vbv_maxrate=8700 / vbv_bufsize=11600 / nal_hrd=vbr / filler=0 / ip_ratio=1.40 / aq=1:1.00
Язык : English
Default : Да
Forced : Нет

Аудио #1
Идентификатор : 2
Формат : AC-3
Формат/Информация : Audio Coding 3
Коммерческое название : Dolby Digital
Идентификатор кодека : A_AC3
Продолжительность : 42 м. 49 с.
Вид битрейта : Постоянный
Битрейт : 640 Кбит/сек
Каналы : 6 каналов
Channel layout : L R C LFE Ls Rs
Частота : 48,0 КГц
Частота кадров : 31,250 кадров/сек (1536 SPF)
Битовая глубина : 16 бит
Метод сжатия : С потерями
Размер потока : 196 Мбайт (9%)
Заголовок : LostFilm
Язык : Russian
ServiceKind/String : Complete Main
Default : Да
Forced : Нет

Аудио #2
Идентификатор : 3
Формат : E-AC-3
Формат/Информация : Enhanced AC-3
Коммерческое название : Dolby Digital Plus
Идентификатор кодека : A_EAC3
Продолжительность : 42 м. 49 с.
Вид битрейта : Постоянный
Битрейт : 640 Кбит/сек
Каналы : 6 каналов
Channel layout : L R C LFE Ls Rs
Частота : 48,0 КГц
Частота кадров : 31,250 кадров/сек (1536 SPF)
Метод сжатия : С потерями
Размер потока : 196 Мбайт (9%)
Язык : English
ServiceKind/String : Complete Main
Default : Нет
Forced : Нет

Текст #1
Идентификатор : 4
Формат : UTF-8
Идентификатор кодека : S_TEXT/UTF8
Идентификатор кодека/Информация : UTF-8 Plain Text
Продолжительность : 41 м. 37 с.
Битрейт : 59 бит/сек
ElementCount : 621
Размер потока : 18,2 Кбайт (0%)
Язык : English
Default : Нет
Forced : Нет

Текст #2
Идентификатор : 5
Формат : UTF-8
Идентификатор кодека : S_TEXT/UTF8
Идентификатор кодека/Информация : UTF-8 Plain Text
Продолжительность : 41 м. 37 с.
Битрейт : 59 бит/сек
ElementCount : 621
Размер потока : 18,2 Кбайт (0%)
Заголовок : SDH
Язык : English
Default : Нет
Forced : Нет
скриншот  скриншот  скриншот  
pb.wtf



Скачать Готэм через торрент https://i107.fastpic.ru/big/2019/0105/3b/37ed3c0b19c43283104d17f7cec4313b.jpg Скачать фильм Готэм через торрент бесплантно в хорошем качестве Описание: Новый сотрудник департамента полиции Готэма, детектив Джеймс Гордон и его напарник Харви Баллок назначаются начальником отдела ... 10 10 6
Info! Золотая раздача, скачанное не засчитывается.
Торрент: Зарегистрирован [2019-05-02 09:37] · скачан: 54 раз
Статус: √ проверено
Размер: 26.46 GB
Как cкачать? Как скачать Готэм через торрент | qTorrent

% Раздел Тема Автор DL S | L
Зарубежные сериалы [ 19.49 GB ] Готэм / Gotham / Сезон: 5 / Серии: 1-10 из 12 [2019 WEB-DL 1080p] MVO [NewStudio] bober100 Скачать
1 | 0
Зарубежные сериалы [ 79.58 GB ] Готэм / Gotham / Сезон: 5 / Серии: 1-12 из 12 [2019 BD Remux 1080р] MVO [LostFilm] bober100 Скачать
1 | 0
Зарубежные сериалы [ 12.74 GB ] Готэм / Gotham / Сезон: 5 / Серии: 1-12 из 12 [2019 WEB-DL 720p] [MVO] killermax2013 Скачать
1 | 0
Зарубежные сериалы [ 15.31 GB ] Готэм / Gotham / Сезон: 5 / Серии: 1-12 из 12 [2019 WEBRip 720p] [MVO] killermax2013 Скачать
1 | 0
Зарубежные сериалы [ 24.99 GB ] Готэм / Gotham / Сезон: 5 / Серии: 1-12 из 12 [2019 WEBRip 1080p] [MVO] killermax2013 Скачать
1 | 0
Зарубежные сериалы [ 11.59 GB ] Готэм / Gotham / Сезон: 5 / Серии: 1-10 из 12 [2019 WEB-DL 720p] [MVO] killermax2013 Скачать
1 | 0
Зарубежные сериалы [ 6.01 GB ] Готэм / Gotham / Сезон: 5 / Серии: 1-12 из 12 [2019 WEB-DLRip] [MVO] killermax2013 Скачать
1 | 0

28-11-2019 20:33  

Отключить всю рекламу на сайте

    Дорогой пользователь! Огромная просьба, поблагодарите релизера, оцените раздачу и оставьте свои комментарий, если Вы скачали Готэм через торрент бесплатно! Внесите свою лепту в развитие PiratBit!
    Комментировать посты могут только пользователи прошедшие не сложную регистрацию
    Показать сообщения:    

    Готэм через торрент
    Скачать бесплатно Готэм
    Готэм скачать торрент
    Готэм смотреть онлайн
    Cкачать фильм Готэм бесплатно
    Готэм скачать торрент в хорошем качестве
    Готэм смотреть онлайн бесплатно в хорошем качестве


    Вы не можете начинать темы
    Вы не можете отвечать на сообщения
    Вы не можете редактировать свои сообщения
    Вы не можете удалять свои сообщения
    Вы не можете голосовать в опросах
    Вы не можете прикреплять файлы к сообщениям
    Вы можете скачивать файлы