Всегда рабочее зеркало без VPN и Proxy просто перед .vidak.icu напиши любое слово или цифру, Пример http://4axz.vidak.icu

MVO

Лицензия

1 сезон

1

1 сезон

iTunes

1 сезон

13

1 сезон

Deluxe

pack

Рекомендуем

Repack

30

ВАЖНО

RePack

MK11

RePack

jed

RePack

fifa19

RePack

RDR2

RePack

NEED FOR SPEED™ PAYBACK

Кинопоиск HD

6 сезон

 Острые козырьки 6 сезон

Все сериалы

все сериалы на PB.wtf

RePack

FAR CRY 5
  
Magnet ссылка

Молодая гвардия / Серии: 1-12 из 12 (Леонид Пляскин) [2015, военный, драма, HDTV 1080i] pb.wtf

Молодая гвардия через торрент pb.wtf

Размер: 31.12 GB | Добавлен: 3 года 6 мес. назад | Торрент скачан:28 раз
Смотреть онлайн Молодая гвардия | Скачать    Ребята, помогите собрать деньги на оплату серверов!!!

05-01-2019 21:03 Молодая гвардия Скачать торрент  

Молодая гварди Год выпуска: 2015
Страна: Россия
Жанр: военный, драма
Продолжительность: 12 x ~ 00:50:00
Субтитры: отсутствуют

Режиссер: Леонид Пляскин

rating

В ролях:

Никита Тезин, Катерина Шпица, Юрий Борисов (II), Вячеслав Чепурченко, Ирина Горбачёва, Юрий Чурсин, Владислав Кузнецов, Виктор Хориняк, Полина Пушкарук и др.

Описание:

Новый взгляд на одну из самых драматичных страниц Великой Отечественной Войны. Краснодон, 1942 год. Юные подпольщики для борьбы с карателями организуют свой отряд – «Молодую гвардию». Под самым носом у фашистских оккупантов ребята совершают многочисленные диверсии. Операции становятся всё более отчаянными и рискованными. Члены организации с ловкостью проникают на оружейные склады, портят провиант и срывают добычу угля для немецкого тыла. Немцы не подозревают, что имеют дело не с партизанами, а с горсткой юношей и подростков…

Качество: HDTV 1080i
Формат: TS

Видео: AVC, 1920 х 1080 (16:9), 25,000 кадр/сек, 5 517 Кбит/сек, 0.106 bit/pixel
Аудио#1: AC3, 48000 Hz, 384 Kbps, 6 каналов
Аудио#2: MP2, 48000 Hz, 192 Kbps, 2 канала
скриншот  скриншот  скриншот  скриншот  скриншот  

General
ID : 1 (0x1)
Complete name : D:\Раздачи\Молодая гвардия (1-12 серии из 12) HDTV (1080i)\Molodaja gvardija.07.HDTV(1080i).GeneralFilm.ts
Format : MPEG-TS
File size : 2.21 GiB
Duration : 49mn 16s
Overall bit rate mode : Variable
Overall bit rate : 6 416 Kbps

Video
ID : 4121 (0x1019)
Menu ID : 80 (0x50)
Format : AVC
Format/Info : Advanced Video Codec
Format profile : [email protected]
Format settings, CABAC : Yes
Format settings, ReFrames : 3 frames
Codec ID : 27
Duration : 49mn 16s
Bit rate : 5 517 Kbps
Width : 1 920 pixels
Height : 1 080 pixels
Display aspect ratio : 16:9
Frame rate : 25.000 fps
Standard : Component
Color space : YUV
Chroma subsampling : 4:2:0
Bit depth : 8 bits
Scan type : Interlaced
Scan type, store method : Separated fields
Scan order : Top Field First
Bits/(Pixel*Frame) : 0.106
Stream size : 1.90 GiB (86%)
Color range : Limited
Color primaries : BT.709
Transfer characteristics : BT.709
Matrix coefficients : BT.709

Audio #1
ID : 4124 (0x101C)
Menu ID : 80 (0x50)
Format : AC-3
Format/Info : Audio Coding 3
Mode extension : CM (complete main)
Format settings, Endianness : Big
Codec ID : 6
Duration : 49mn 16s
Bit rate mode : Constant
Bit rate : 384 Kbps
Channel(s) : 6 channels
Channel positions : Front: L C R, Side: L R, LFE
Sampling rate : 48.0 KHz
Frame rate : 31.250 fps (1536 spf)
Compression mode : Lossy
Delay relative to video : -120ms
Stream size : 135 MiB (6%)
Language : Russian

Audio #2
ID : 4125 (0x101D)
Menu ID : 80 (0x50)
Format : MPEG Audio
Format version : Version 1
Format profile : Layer 2
Codec ID : 3
Duration : 49mn 16s
Bit rate mode : Constant
Bit rate : 192 Kbps
Channel(s) : 2 channels
Sampling rate : 48.0 KHz
Compression mode : Lossy
Delay relative to video : -120ms
Stream size : 67.7 MiB (3%)
Language : Russian

pb.wtf



Скачать Молодая гвардия через торрент http://rudb.org/img/2017_05/i591fe91c5c9b6.jpg Скачать, смотреть онлайн Молодая гвардия бесплантно в хорошем качестве Описание: Новый взгляд на одну из самых драматичных страниц Великой Отечественной Войны. Краснодон, 1942 год. Юные подпольщики для борьбы с ... 10 10 3
Info! Золотая раздача, скачанное не засчитывается.
Торрент: Зарегистрирован [2019-01-05 21:03] · скачан: 28 раз
Статус: √ проверено
Размер: 31.12 GB
Как cкачать? Как скачать Молодая гвардия через торрент | UTorrent

% Раздел Тема Автор DL S | L
Наши сериалы [ 17.61 GB ] Молодая гвардия / 1-12 серии из 12 [2015 военный WEB-DLRip 1080p] bober100 Скачать
1 | 0
Наши сериалы [ 7.95 GB ] Молодая гвардия / 1 сезон / 1-12 серия из 12 [2014 военная приключенческая WEB-DLRip-AVC] aleksan55 Скачать
1 | 0
Наши сериалы [ 3.55 GB ] Молодая гвардия / Серии: 1-6 из 12 [2015 Военный WEB-DLRip] lug30 Скачать
1 | 0

28-11-2019 20:33  

Отключить всю рекламу на сайте

    Дорогой пользователь! Огромная просьба, поблагодарите релизера, оцените раздачу и оставьте свои комментарий, если Вы скачали Молодая гвардия через торрент бесплатно!
    Комментировать посты могут только пользователи прошедшие не сложную регистрацию
    Показать сообщения:    

    Молодая гвардия через торрент
    Скачать бесплатно Молодая гвардия
    Молодая гвардия скачать торрент
    Молодая гвардия смотреть онлайн
    Cкачать фильм Молодая гвардия бесплатно
    Молодая гвардия скачать торрент в хорошем качестве
    Молодая гвардия смотреть онлайн бесплатно в хорошем качестве


    Вы не можете начинать темы
    Вы не можете отвечать на сообщения
    Вы не можете редактировать свои сообщения
    Вы не можете удалять свои сообщения
    Вы не можете голосовать в опросах
    Вы не можете прикреплять файлы к сообщениям
    Вы можете скачивать файлы