Ссылка на приватное зеркало нашего сайта всего за 1$. Внимание количество ограничено!!!

2 сезон

iTunes

1 сезон

1

iTunes

iTunes

iTunes

1 сезон

RePack

30

ИГРА 18+

pack

ВАЖНО

!!Акция!!

Alien_RageХит недели

RePack

MK11
pack

Забери бонус

RePack

jed

!!Акция!!

Alien_Rage

RePack

fifa19

RePack

Assassins Creed: Odyssey

RePack

NEED FOR SPEED™ PAYBACK

4 сезон

9 сезон

Бесстыжие 9 сезон

Все сериалы

все сериалы на PB.wtf

RePack

FAR CRY 5
  

Вторая первая любовь / Серии: 1-4 из 4 (Максим Демченко) [2019, Детектив, мелодрама, WEB-DLRip] pb.wtf

Вторая первая любовь через торрент pb.wtf

Размер: 2.42 GB | Добавлен: 1 год 9 мес. назад | Торрент скачан:105 раз
Скачать  

06-01-2019 04:27 Вторая первая любовь Скачать торрент  

Вторая первая любовьГод выпуска: 2019
Страна: Россия
Жанр: Детектив, мелодрама
Продолжительность: ~ 00:48:00 серия
Субтитры: отсутствуют

Режиссер: Максим Демченко



В ролях:

Соня Присс, Владимир Петров, Олег Гаас, Оксана Базилевич, Наталья Ткаченко, Константин Воробьёв, Филипп Азаров, Кира Кауфман, Степан Бекетов

Описание:

Аля живет в небольшом приморском городке. Ее возлюбленный Иван, сын рыбака, очень не нравится ее матери, к тому же, за Алей ухаживает завидный жених – архитектор Толя Кунцев, сын главы администрации города. Однако деваться некуда: Аля уже беременна от Ивана. Влюбленные женятся, но той же ночью Иван пропадает, а утром его тело находят на сгоревшем складе. Воспользовавшись ситуацией, мать достает для Али паспорт без отметки о браке. Аля скрывает беременность и уезжает рожать в деревню. После тяжелых родов ей сообщают о смерти сына. Убитая горем, потеряв и мужа, и ребенка, она возвращается в город и в конце концов соглашается выйти замуж за Толю – без любви.

Качество: WEB-DLRip
Формат: AVI

Видео: XviD, 1600 Кбит/с, 720x400
Аудио: AC3, 2 ch, 192 Кбит/с
скриншот  скриншот  скриншот  скриншот  скриншот  

Общее
Полное имя : D:\Вторая первая любовь. (2018). WEB-DLRip. Files-x\01. Вторая первая любовь. (2018).WEB-DLRip. Files-x.avi
Формат : AVI
Формат/Информация : Audio Video Interleave
Размер файла : 632 Мбайт
Продолжительность : 49 м. 0 с.
Общий поток : 1803 Кбит/сек
Программа кодирования : VirtualDubMod 1.5.10.3 | www.virtualdub-fr.org || (build 2550/release)
Библиотека кодирования : VirtualDubMod build 2550/release

Видео
Идентификатор : 0
Формат : MPEG-4 Visual
Профиль формата : Advanced Simple@L5
Параметр BVOP формата : 1
Параметр QPel формата : Нет
Параметр GMC формата : Без точки перехода
Параметр матрицы формата : Выборочная
Идентификатор кодека : XVID
Идентификатор кодека/Подсказка : XviD
Продолжительность : 49 м. 0 с.
Битрейт : 1601 Кбит/сек
Ширина : 720 пикселей
Высота : 400 пикселей
Соотношение сторон : 16:9
Частота кадров : 25,000 кадров/сек
Цветовое пространство : YUV
Субдискретизация насыщенности : 4:2:0
Битовая глубина : 8 бит
Тип развёртки : Прогрессивная
Метод сжатия : С потерями
Бит/(Пиксели*Кадры) : 0.222
Размер потока : 561 Мбайт (89%)
Библиотека кодирования : XviD 73

Аудио
Идентификатор : 1
Формат : AC-3
Формат/Информация : Audio Coding 3
Расширение режима : CM (complete main)
Параметр Endianness формата : Big
Идентификатор кодека : 2000
Продолжительность : 49 м. 0 с.
Вид битрейта : Постоянный
Битрейт : 192 Кбит/сек
Каналы : 2 канала
Расположение каналов : Front: L R
Частота : 48,0 КГц
Частота кадров : 31,250 кадров/сек (1536 spf)
Метод сжатия : С потерями
Размер потока : 67,3 Мбайт (11%)
Выравнивание : Разделение по промежуткам
Продолжительность промежутка : 40 мс. (1,00 видеокадр)
Время предзагрузки промежутка : 500 мс.

pb.wtf



Скачать Вторая первая любовь через торрент https://i108.fastpic.ru/big/2019/0105/1f/7c7925152acd8f3731547671e2976b1f.jpg Скачать фильм Вторая первая любовь через торрент бесплантно в хорошем качестве Описание: Аля живет в небольшом приморском городке. Ее возлюбленный Иван, сын рыбака, очень не нравится ее матери, к тому же, за Алей ... 10 10 5
Торрент: Зарегистрирован [2019-01-06 04:27] · скачан: 105 раз
Статус: √ проверено
Размер: 2.42 GB
Как cкачать? Как скачать Вторая первая любовь через торрент | qTorrent

% Раздел Тема Автор DL S | L
Наши сериалы [ 2.44 GB ] Вторая первая любовь / Серии: 1-4 из 4 [2019 SATRip] bober100 Скачать
1 | 0
Наши сериалы [ 2.49 GB ] Вторая первая любовь / Серии: 1-4 из 4 [2019 SATRip-AVC] aleksan55 Скачать
1 | 0

28-11-2019 20:33  

Отключить всю рекламу на сайте

    Дорогой пользователь! Огромная просьба, поблагодарите релизера, оцените раздачу и оставьте свои комментарий, если Вы скачали Вторая первая любовь через торрент бесплатно! Внесите свою лепту в развитие PiratBit!
    Комментировать посты могут только пользователи прошедшие не сложную регистрацию
    Показать сообщения:    

    Вторая первая любовь через торрент
    Скачать бесплатно Вторая первая любовь
    Вторая первая любовь скачать торрент
    Вторая первая любовь смотреть онлайн
    Cкачать фильм Вторая первая любовь бесплатно
    Вторая первая любовь скачать торрент в хорошем качестве
    Вторая первая любовь смотреть онлайн бесплатно в хорошем качестве


    Вы не можете начинать темы
    Вы не можете отвечать на сообщения
    Вы не можете редактировать свои сообщения
    Вы не можете удалять свои сообщения
    Вы не можете голосовать в опросах
    Вы не можете прикреплять файлы к сообщениям
    Вы можете скачивать файлы