Ребята, если до конца года каждый наш пользователь пожертвует хотя бы 10 рублей, нам хватит денег оплатить все наши расходы.

iTunes

Хэллоуин

iTunes

venom

iTunes

Вы умрете, или мы вернем вам деньги

iTunes

iTunes

Тайна дома с часами

iTunes

Ничего хорошего в отеле «Эль рояль»

1080p

Хит недели

Лицензия

Агент Джонни Инглиш 3.0

ИГРА 18+

pack

RePack

Battlefield V

RePack

Assassins Creed: Odyssey
pack

Проголосуй

Лучший релизер 2018

RePack

Darksiders 3

iTunes 4K

venom Хит недели

RePack

fifa19

!!Акция!!

Alien_RageХит недели

RePack

NEED FOR SPEED™ PAYBACK

SATRip

9 сезон

Бесстыжие 9 сезон

Все сериалы

все сериалы на PB.wtf

iTunes

Мэнди

RePack

FAR CRY 5
  

Плохой кот Шерафеттин / Kötü Kedi Serafettin (Мехмет Куртулас, Айсо Юнал) [2016 г., Мультфильм, фэнтези, боевик, комедия, приключения, BDRip 1080p, Любительский (двухголосый) datynet & Galina Vasyukova]

Плохой кот Шерафеттин через торрент

Раздают: 7 [ 0 KB/s ]
Размер: 7.16 GB | Добавлен: 11 д. назад | Торрент скачан:107 раз
Скачать  

06-01-2019 07:35 Плохой кот Шерафеттин Скачать торрент  

Плохой кот Шерафеттин / Kötü Kedi Serafettin
Год выпуска: 2016
Страна: Турция
Жанр: Мультфильм, фэнтези, боевик, комедия, приключения
Продолжительность: 01:25:31
Перевод: Любительский (двухголосый) datynet & Galina Vasyukova (Присутствует ненормативная лексика! 18+)
Режиссер: Мехмет Куртулас, Айсо Юнал
БЕЗ РЕКЛАМЫ!
В ролях: Уур Юджел, Демет Эвгар, Окан Ялабык, Гувен Кирак, Гёкче Озиоль, Ахмет Мюмтаз Тайлан, Йекта Копан, Айсен Груда, Джезми Баскын

Описание: Главный герой, кот Шерафеттин - смелый и ироничный, веселый и нелепый. А ещё очень независимый кот, который старается решать все свои проблемы самостоятельно. Часто из этого вырастает еще больше неприятностей.
Качество: BDRip 1080p
Формат: MKV
Видео кодек: AVC
Аудио кодек: AC3
Видео: MPEG-4 AVC, 11.8 Мбит/с, 1920x804 , 24.000 FPS
Аудио#1: Русский (AC3, 2 ch, 192 Кбит/с) DVO , 48.0 kHz

Семпл
скриншот   скриншот   скриншот  

General
Unique ID : 171593044581467178341127355489529204687 (0x81179E47A69101C4AA458BDB98098FCF)
Complete name : D:\Plohoy_Kot .2016. BDRip1080p.mkv
Format : Matroska
Format version : Version 4
File size : 7.16 GiB
Duration : 1 h 25 min
Overall bit rate : 12.0 Mb/s
Movie name : Kötü Kedi Serafettin .2016_BDRip1080p_FreeRutor_grab777
Encoded date : UTC 2019-01-06 07:30:37
Writing application : mkvmerge v7.1.0 ('Good Love') 64bit built on Jul 27 2014 13:06:55
Writing library : libebml v1.3.0 + libmatroska v1.4.1

Video
ID : 1
Format : AVC
Format/Info : Advanced Video Codec
Format profile : High@L4.1
Format settings : CABAC / 5 Ref Frames
Format settings, CABAC : Yes
Format settings, ReFrames : 5 frames
Codec ID : V_MPEG4/ISO/AVC
Duration : 1 h 25 min
Bit rate : 11.8 Mb/s
Width : 1 920 pixels
Height : 804 pixels
Display aspect ratio : 2.40:1
Frame rate mode : Constant
Frame rate : 24.000 FPS
Color space : YUV
Chroma subsampling : 4:2:0
Bit depth : 8 bits
Scan type : Progressive
Bits/(Pixel*Frame) : 0.319
Stream size : 7.05 GiB (98%)
Title : by_grab777
Writing library : x264 core 148 r2744 b97ae06
Encoding settings : cabac=1 / ref=5 / deblock=1:-3:-3 / analyse=0x3:0x113 / me=umh / subme=11 / psy=1 / psy_rd=1.05:0.00 / mixed_ref=1 / me_range=32 / chroma_me=1 / trellis=2 / 8x8dct=1 / cqm=0 / deadzone=21,11 / fast_pskip=0 / chroma_qp_offset=-2 / threads=12 / lookahead_threads=3 / sliced_threads=0 / nr=0 / decimate=0 / interlaced=0 / bluray_compat=0 / constrained_intra=0 / bframes=10 / b_pyramid=2 / b_adapt=2 / b_bias=0 / direct=3 / weightb=1 / open_gop=0 / weightp=2 / keyint=240 / keyint_min=24 / scenecut=40 / intra_refresh=0 / rc_lookahead=120 / rc=2pass / mbtree=0 / bitrate=11800 / ratetol=1.0 / qcomp=0.65 / qpmin=0 / qpmax=69 / qpstep=4 / cplxblur=20.0 / qblur=0.5 / vbv_maxrate=50000 / vbv_bufsize=62500 / nal_hrd=none / filler=0 / ip_ratio=1.30 / pb_ratio=1.20 / aq=1:0.75
Default : Yes
Forced : No
Color range : Limited
Color primaries : BT.709
Transfer characteristics : BT.709
Matrix coefficients : BT.709

Audio
ID : 2
Format : AC-3
Format/Info : Audio Coding 3
Commercial name : Dolby Digital
Codec ID : A_AC3
Duration : 1 h 25 min
Bit rate mode : Constant
Bit rate : 192 kb/s
Channel(s) : 2 channels
Channel layout : L R
Sampling rate : 48.0 kHz
Frame rate : 31.250 FPS (1536 SPF)
Bit depth : 16 bits
Compression mode : Lossy
Stream size : 117 MiB (2%)
Title : DVO (datynet & Galina Vasyukova)
Language : Russian
Service kind : Complete Main
Default : Yes
Forced : No



Скачать Плохой кот Шерафеттин через торрент http://pic1.pb.wtf/images/12/8agey.jpg Скачать фильм Плохой кот Шерафеттин через торрент бесплантно в хорошем качестве Описание: Главный герой, кот Шерафеттин - смелый и ироничный, веселый и нелепый. А ещё очень независимый кот, который старается решать все ... 8.2 10 5
Info! Золотая раздача, скачанное не засчитывается.
Торрент: Зарегистрирован [2019-01-06 07:35] · скачан: 107 раз
Статус: T временная
Размер: 7.16 GB
Как cкачать? Как скачать Плохой кот Шерафеттин через торрент | qTorrent


>> Регистрируемся здесь <<






Отзывы и комментарии о схеме читаем и пишем здесь: ---> Отзывы и комментарии о схеме

Новые благодарочки в телеграм довольных пользователей:
скриншот   скриншот   скриншот   скриншот   скриншот

06-01-2019 08:04 Плохой кот Шерафеттин Скачать торрент  

08-01-2019 14:16 Плохой кот Шерафеттин Скачать торрент  

Мульт шикарный) Жаль что наши переводчики как всегда не оставили оригинальную дорожку и субтитры. Все равно спасибо



08-01-2019 15:59 Плохой кот Шерафеттин Скачать торрент  

Смотреть без детей!!!



09-01-2019 06:20 Плохой кот Шерафеттин Скачать торрент  

david78 писал(а):

Мульт шикарный) Жаль что наши переводчики как всегда не оставили оригинальную дорожку и субтитры. Все равно спасибо

А при чём тут переводчики ?



    Дорогой пользователь! Огромная просьба, поблагодарите релизера, оцените раздачу и оставьте свои комментарий, если Вы скачали Плохой кот Шерафеттин через торрент бесплатно! Внесите свою лепту в развитие PiratBit!
    Комментировать посты могут только пользователи прошедшие не сложную регистрацию
    Показать сообщения:    

    Плохой кот Шерафеттин через торрент
    Скачать бесплатно Плохой кот Шерафеттин
    Плохой кот Шерафеттин скачать торрент
    Плохой кот Шерафеттин смотреть онлайн
    Cкачать фильм Плохой кот Шерафеттин бесплатно
    Плохой кот Шерафеттин скачать торрент в хорошем качестве
    Плохой кот Шерафеттин смотреть онлайн бесплатно в хорошем качестве


    Вы не можете начинать темы
    Вы не можете отвечать на сообщения
    Вы не можете редактировать свои сообщения
    Вы не можете удалять свои сообщения
    Вы не можете голосовать в опросах
    Вы не можете прикреплять файлы к сообщениям
    Вы можете скачивать файлы