Ссылка на приватное зеркало нашего сайта всего за 1$. Внимание количество ограничено!!!

2 сезон

iTunes

1 сезон

1

iTunes

iTunes

iTunes

1 сезон

RePack

30

ИГРА 18+

pack

ВАЖНО

!!Акция!!

Alien_RageХит недели

RePack

MK11
pack

Забери бонус

RePack

jed

!!Акция!!

Alien_Rage

RePack

fifa19

RePack

Assassins Creed: Odyssey

RePack

NEED FOR SPEED™ PAYBACK

4 сезон

9 сезон

Бесстыжие 9 сезон

Все сериалы

все сериалы на PB.wtf

RePack

FAR CRY 5
  

Паук / Гознак / Сезон: 1 / Серии: 1-8 из 8 (Евгений Звездаков) [2015, Детектив, криминал, триллер, HDTV 1080i] pb.wtf

Паук через торрент pb.wtf

Размер: 25.85 GB | Добавлен: 1 год 9 мес. назад | Торрент скачан:45 раз
Скачать  

06-01-2019 13:17 Паук Скачать торрент  

Паук / ГознакГод выпуска: 2015
Страна: Россия
Жанр: Детектив, криминал, триллер
Продолжительность: ~ 00:50:00 серия
Субтитры: отсутствуют

Режиссер: Евгений Звездаков



В ролях:

Андрей Смоляков, Марина Александрова, Владимир Юматов, Мария Андреева, Сергей Угрюмов, Сергей Годин, Марк Богатырёв, Каролина Грушка, Родион Нахапетов, Андрис Лиелайс, Юрий Тарасов, Вадим Андреев, Алексей Бардуков, Юрий Чурсин, Даниэла Стоянович, Александр Дробитько, Константин Демидов (II), Дмитрий Астрахан, Екатерина Волкова, Софья Синицына, Иван Волков, Светлана Мамрешева, Игорь Филиппов, Елизавета Зарубина, Анна Легчилова, Анастасия Шалонько, Анастасия Фурса

Описание:

Третий фильм проекта об опергруппе Черкасова - «Гознак». По мотивам еще одной знаменитой истории - ограблении Госбанка Армянской ССР в 1977 году, когда братья Калачян обнесли казну на полтора миллиона рублей (два миллиона долларов по тогдашнему курсу). Это было самое крупное похищение в Советском Союзе. 1967 год. Москва. Убита манекенщица из Дома моды. На место преступления приезжает группа майора Черкасова. Он срочным порядком внедряет в Дом моды своего человека – Соню Тимофееву, главной задачей которой является получение информации об отношениях между работниками Домы моды. Вскоре погибает еще одна манекенщица. И одновременно с этим убийством происходит очень дерзкое преступление - ограбление Гознака...

Качество: HDTV 1080i
Формат: TS

Видео: AVC, ~ 9000 Кбит/с, 1920x1080
Аудио#1: Русский (AC3, 6 ch, 384 Кбит/с)
Аудио#2: Русский (MP2, 2 ch, 224 Кбит/с)
скриншот  скриншот  скриншот  скриншот  

Общее
Полное имя : D:\Запись\Pauk.HDTV(1080i).GeneralFilm\Pauk.01.HDTV(1080i).GeneralFilm.ts
Формат : MPEG-TS
Размер файла : 3,42 Гбайт
Продолжительность : 51 м.
Режим общего битрейта : Переменный
Общий поток : 9460 Кбит/сек

Видео
Идентификатор : 4121 (0x1019)
Идентификатор меню : 80 (0x50)
Формат : AVC
Формат/Информация : Advanced Video Codec
Профиль формата : Main@L4.0
Параметр CABAC формата : Да
Параметр ReFrames формата : 3 кадра
Параметр GOP формата : M=4, N=32
Идентификатор кодека : 27
Продолжительность : 51 м.
Битрейт : 8410 Кбит/сек
Ширина : 1920 пикселей
Высота : 1080 пикселей
Соотношение сторон : 16:9
Частота кадров : 25,000 кадров/сек
Стандарт вещания : Component
Цветовое пространство : YUV
Субдискретизация насыщенности : 4:2:0
Битовая глубина : 8 бит
Тип развёртки : Чересстрочная
Порядок развёртки : Верхнее поле первое
Бит/(Пиксели*Кадры) : 0.162
Размер потока : 3,04 Гбайт (89%)
Основные цвета : BT.709
Характеристики трансфера : BT.709
Коэффициенты матрицы : BT.709

Аудио
Идентификатор : 4125 (0x101D)
Идентификатор меню : 80 (0x50)
Формат : MPEG Audio
Версия формата : Version 1
Профиль формата : Layer 2
Идентификатор кодека : 3
Продолжительность : 51 м.
Вид битрейта : Постоянный
Битрейт : 192 Кбит/сек
Каналы : 2 канала
Частота : 48,0 КГц
Метод сжатия : С потерями
Задержка видео : -120 мс.
Размер потока : 71,2 Мбайт (2%)
Язык : Russian

pb.wtf



Скачать Паук через торрент http://s005.radikal.ru/i209/1510/21/7839d11802d6.png Скачать фильм Паук через торрент бесплантно в хорошем качестве Описание: Третий фильм проекта об опергруппе Черкасова - «Гознак». По мотивам еще одной знаменитой истории - ограблении Госбанка Армянской ... 10 10 4
Торрент: Зарегистрирован [2019-01-06 13:17] · скачан: 45 раз
Статус: √ проверено
Размер: 25.85 GB
Как cкачать? Как скачать Паук через торрент | qTorrent

28-11-2019 20:33  

Отключить всю рекламу на сайте

08-01-2019 17:12 Паук Скачать торрент  

Хороший сериалpb.wtf



    Дорогой пользователь! Огромная просьба, поблагодарите релизера, оцените раздачу и оставьте свои комментарий, если Вы скачали Паук через торрент бесплатно! Внесите свою лепту в развитие PiratBit!
    Комментировать посты могут только пользователи прошедшие не сложную регистрацию
    Показать сообщения:    

    Паук через торрент
    Скачать бесплатно Паук
    Паук скачать торрент
    Паук смотреть онлайн
    Cкачать фильм Паук бесплатно
    Паук скачать торрент в хорошем качестве
    Паук смотреть онлайн бесплатно в хорошем качестве


    Вы не можете начинать темы
    Вы не можете отвечать на сообщения
    Вы не можете редактировать свои сообщения
    Вы не можете удалять свои сообщения
    Вы не можете голосовать в опросах
    Вы не можете прикреплять файлы к сообщениям
    Вы можете скачивать файлы