Ссылка на приватное зеркало нашего сайта всего за 1$. Внимание количество ограничено!!!

2 сезон

iTunes

1 сезон

1

iTunes

iTunes

iTunes

1 сезон

RePack

30

ИГРА 18+

pack

ВАЖНО

!!Акция!!

Alien_RageХит недели

RePack

MK11
pack

Забери бонус

RePack

jed

!!Акция!!

Alien_Rage

RePack

fifa19

RePack

Assassins Creed: Odyssey

RePack

NEED FOR SPEED™ PAYBACK

4 сезон

9 сезон

Бесстыжие 9 сезон

Все сериалы

все сериалы на PB.wtf

RePack

FAR CRY 5
  

Несколько шагов до любви / Серии: 1-4 из 4 (Эдуард Пальмов) [2019, Мелодрама, SATRip] pb.wtf

Несколько шагов до любви через торрент pb.wtf

Размер: 2.58 GB | Добавлен: 1 год 9 мес. назад | Торрент скачан:60 раз
Скачать  

06-01-2019 14:03 Несколько шагов до любви Скачать торрент  

Несколько шагов до любвиГод выпуска: 2019
Страна: Россия
Жанр: Мелодрама
Продолжительность: ~ 00:45:00
Субтитры: отсутствуют

Режиссер: Эдуард Пальмов



В ролях:

Елена Захарова, Владислав Резник, Руслан Чернецкий, Сергей Ходьков, Наталья Аладко

Описание:

Лариса (Елена Захарова) – хозяйка сети магазинов одежды, готовится к свадьбе с успешным бизнесменом Михаилом (Руслан Чернецкий). Большой любви в их отношениях нет, но к этому браку Ларису подталкивает ее мать Наталья – властная женщина, которая всю жизнь руководит жизнью дочери.Но однажды на пороге Ларисы появляется молодой человек – Сергей (Сергей Ходьков), который утверждает, что он – ее сын. Лариса потрясена. Она действительно еще школьницей родила ребенка, но была уверена, что мальчик умер во время родов. Именно так ей сказала мать. Но все оказалось ложью.Сергей жил в детском доме, пока его не усыновил его отец – Дмитрий (Владислав Резник), первая любовь Ларисы. В юности Ларису с Димой тоже разлучила Наталья.Но теперь Дима запил – у него в жизни черная полоса. Погибла жена, оставив одного с маленькой дочкой, кроме того бизнес вот-вот рухнет.Сережу на днях забирают в армию, и помочь отцу и сестре будет некому. Именно поэтому он был вынужден разыскать Ларису, свою мать, которая, как он считает, предала отца и отказалась от него в роддоме…

Качество: SATRip
Формат: AVI

Видео: XviD, ~ 1799 Кбит/с, 720x400, 25 кадр/с
Аудио: MP3, 2 ch, 192 Кбит/с
скриншот  скриншот  скриншот  скриншот  скриншот  

Общее
Полное имя : D:\Несколько шагов до любви 2019\01. Несколько шагов до любви.2019.SATRip.avi
Формат : AVI
Формат/Информация : Audio Video Interleave
Размер файла : 620 Мбайт
Продолжительность : 44 м. 39 с.
Общий поток : 1942 Кбит/сек

Видео
Идентификатор : 0
Формат : MPEG-4 Visual
Профиль формата : Advanced Simple@L5
Параметр BVOP формата : 2
Параметр QPel формата : Нет
Параметр GMC формата : Без точки перехода
Параметр матрицы формата : Default (H.263)
Идентификатор кодека : XVID
Идентификатор кодека/Подсказка : XviD
Продолжительность : 44 м. 39 с.
Битрейт : 1800 Кбит/сек
Ширина : 720 пикселей
Высота : 400 пикселей
Соотношение сторон : 16:9
Частота кадров : 25,000 кадров/сек
Цветовое пространство : YUV
Субдискретизация насыщенности : 4:2:0
Битовая глубина : 8 бит
Тип развёртки : Прогрессивная
Метод сжатия : С потерями
Бит/(Пиксели*Кадры) : 0.250
Размер потока : 575 Мбайт (93%)
Библиотека кодирования : XviD 1.2.1 (UTC 2008-12-04)

Аудио
Идентификатор : 1
Формат : MPEG Audio
Версия формата : Version 1
Профиль формата : Layer 3
Режим : Joint stereo
Расширение режима : MS Stereo
Идентификатор кодека : 55
Идентификатор кодека/Подсказка : MP3
Продолжительность : 44 м. 38 с.
Вид битрейта : Постоянный
Битрейт : 128 Кбит/сек
Каналы : 2 канала
Частота : 48,0 КГц
Метод сжатия : С потерями
Размер потока : 40,9 Мбайт (7%)
Выравнивание : Соединение по промежуткам
Продолжительность промежутка : 24 мс. (0,60 видеокадр)
Библиотека кодирования : LAME3.99r
Настройки программы : -m j -V 4 -q 9 -lowpass 17 -b 128
pb.wtf



Скачать Несколько шагов до любви через торрент http://www.kino-teatr.ru/movie/posters/big/7/132747.jpg Скачать фильм Несколько шагов до любви через торрент бесплантно в хорошем качестве Описание: Лариса (Елена Захарова) – хозяйка сети магазинов одежды, готовится к свадьбе с успешным бизнесменом Михаилом (Руслан Чернецкий). ... 8.5 10 8
Торрент: Зарегистрирован [2019-01-06 14:03] · скачан: 60 раз
Статус: √ проверено
Размер: 2.58 GB
Как cкачать? Как скачать Несколько шагов до любви через торрент | qTorrent

28-11-2019 20:33  

Отключить всю рекламу на сайте

    Дорогой пользователь! Огромная просьба, поблагодарите релизера, оцените раздачу и оставьте свои комментарий, если Вы скачали Несколько шагов до любви через торрент бесплатно! Внесите свою лепту в развитие PiratBit!
    Комментировать посты могут только пользователи прошедшие не сложную регистрацию
    Показать сообщения:    

    Несколько шагов до любви через торрент
    Скачать бесплатно Несколько шагов до любви
    Несколько шагов до любви скачать торрент
    Несколько шагов до любви смотреть онлайн
    Cкачать фильм Несколько шагов до любви бесплатно
    Несколько шагов до любви скачать торрент в хорошем качестве
    Несколько шагов до любви смотреть онлайн бесплатно в хорошем качестве


    Вы не можете начинать темы
    Вы не можете отвечать на сообщения
    Вы не можете редактировать свои сообщения
    Вы не можете удалять свои сообщения
    Вы не можете голосовать в опросах
    Вы не можете прикреплять файлы к сообщениям
    Вы можете скачивать файлы