новый адрес пиратбит piratbit
MEGA NEWS Получи личный уникальный адрес сайта и защити себя от блокировок. Внимание количество ограничено!!!

iTunes

1+1

iTunes

мы

iTunes

1

iTunes

Чернобыль

iTunes

Ральф против интернета

Лицензия

ПШазам

Лицензия

Игра престолов

Лицензия

30
pack

ВАЖНО

!!Акция!!

Alien_RageХит недели

RePack

Resident Evil 21

ИГРА 18+

pack

RePack

Metro:Exodus

!!Акция!!

Alien_Rage

RePack

fifa19

RePack

Assassins Creed: Odyssey

RePack

NEED FOR SPEED™ PAYBACK

3 сезон

9 сезон

Бесстыжие 9 сезон

Все сериалы

все сериалы на PB.wtf

RePack

FAR CRY 5
Ребята, катастрофически не хватает 1900р. для оплаты серверов за АВГУСТ (всвязи с блокировками трафик упал в 3 раза), 1-2р., выручайте.
  

Торговцы смертью / Пока есть война, есть надежда / Finché c'è guerra c'è speranza (Альберто Сорди) [1974, трагикомедия, социальная драма, Screener > DVD] [Советская прокатная копия] [Dub] (Мосфильм) pb.wtf

Торговцы смертью через торрент pb.wtf

Размер: 4.35 GB | Добавлен: 9 мес. назад | Торрент скачан:4 раза
Скачать  

06-01-2019 14:48 Торговцы смертью Скачать торрент  

Торговцы смертью / Finché c'è guerra c'è speranza [Советская прокатная копия]
Год выпуска: 1974
Страна: Италия
Жанр: трагикомедия, социальная драма
Продолжительность: 02:00:45
Перевод: Профессиональный (дублированный) - Киностудия "Мосфильм"
Субтитры: нет
Режиссер: Альберто Сорди / Alberto Sordi

В ролях: Альберто Сорди, Сильвия Монти, Алессандро Кутоло, Матильда Коста Джуффрида, Мауро Фирмани, Элиана Де Сантис, Фернандо Давидди, Эдоардо Файета, Серджо Пуппо, Энрико Марчани
Описание: Долгое время Пьетро Кьокка торговал гидравлическими насосами, но это дело не приносило ему большого достатка, но однажды переключившись на торговлю оружием, его доходы резко возросли, а за ними и чрезмерные аппетиты его семьи. Вскоре он становится известен под именем "Торговец смертью".
Однажды возвратившись домой из очередной командировки, Пьетро обнаруживает, что его семья, узнав из газет о его делах, презирает его. Тогда он напоминает им, что на эти деньги они вели праздную и безбедную жизнь и предлагает самим выбрать - продолжать жить по прежнему в роскоши, но с сомнительным доходом или жить бедно на небольшую зарплату, получаемую от торговли насосами...
| Релиз:
Семпл: http://sendfile.su/1466151

Тип релиза: Screener
Контейнер: DVD-Video
Видео: PAL 720x576 (4:3) @ 768x576, 25.000 fps, MPEG-2 Video, ~4800 Kbps, 0.463 bits/pixel
Аудио: Русский, 48.0 KHz, AC3, 2 ch, 256 Kbps
Title: Торговцы смертью 1974 Dub Мосфильм
Size: 4.35 Gb ( 4 560 204,00 KBytes ) - DVD-5
Enabled regions: 1, 2, 3, 4, 5, 6, 7, 8

VTS_01 :
Play Length: 02:00:45
Video: PAL 4:3 (720x576) VBR
Audio:
Russian, AC3, 2/0 (L,R) ch, 256 kbps, Delay 0 mSec
General
Complete name : \Торговцы смертью 1974 Dub Мосфильм\VIDEO_TS\VTS_01_1.VOB
Format : MPEG-PS
File size : 1 024 MiB
Duration : 27 min 46 s
Overall bit rate mode : Variable
Overall bit rate : 5 155 kb/s

Video
ID : 224 (0xE0)
Format : MPEG Video
Format version : Version 2
Format profile : Main@Main
Format settings : CustomMatrix / BVOP
Format settings, BVOP : Yes
Format settings, Matrix : Custom
Format settings, GOP : M=3, N=15
Format settings, picture structure : Frame
Duration : 27 min 46 s
Bit rate mode : Variable
Bit rate : 4 800 kb/s
Width : 720 pixels
Height : 576 pixels
Display aspect ratio : 4:3
Frame rate : 25.000 FPS
Standard : PAL
Color space : YUV
Chroma subsampling : 4:2:0
Bit depth : 8 bits
Scan type : Interlaced
Scan order : Top Field First
Compression mode : Lossy
Bits/(Pixel*Frame) : 0.463
Time code of first frame : 00:00:00:00
Time code source : Group of pictures header
GOP, Open/Closed : Open
GOP, Open/Closed of first frame : Closed
Stream size : 953 MiB (93%)

Audio
ID : 189 (0xBD)-128 (0x80)
Format : AC-3
Format/Info : Audio Coding 3
Commercial name : Dolby Digital
Muxing mode : DVD-Video
Duration : 27 min 45 s
Bit rate mode : Constant
Bit rate : 256 kb/s
Channel(s) : 2 channels
Channel layout : L R
Sampling rate : 48.0 kHz
Frame rate : 31.250 FPS (1536 SPF)
Bit depth : 16 bits
Compression mode : Lossy
Stream size : 50.8 MiB (5%)
Service kind : Complete Main

Menu
скриншот  скриншот  скриншот  скриншот  
pb.wtf



Скачать Торговцы смертью через торрент https://i1.imageban.ru/out/2019/01/05/cd31806c8d7ab9bf1b14c183a78b224e.jpg Скачать фильм Торговцы смертью через торрент бесплантно в хорошем качестве Описание: Долгое время Пьетро Кьокка торговал гидравлическими насосами, но это дело не приносило ему большого достатка, но однажды ... 5.5 10 2
Торрент: Зарегистрирован [2019-01-06 14:48] · скачан: 4 раз
Статус: √ проверено
Размер: 4.35 GB
Как cкачать? Как скачать Торговцы смертью через торрент | qTorrent


>> Регистрируемся здесь <<






Отзывы и комментарии о схеме читаем и пишем здесь: ---> Отзывы и комментарии о схеме

Новые благодарочки в телеграм довольных пользователей:
скриншот   скриншот   скриншот   скриншот   скриншот
    Дорогой пользователь! Огромная просьба, поблагодарите релизера, оцените раздачу и оставьте свои комментарий, если Вы скачали Торговцы смертью через торрент бесплатно! Внесите свою лепту в развитие PiratBit!
    Комментировать посты могут только пользователи прошедшие не сложную регистрацию
    Показать сообщения:    

    Торговцы смертью через торрент
    Скачать бесплатно Торговцы смертью
    Торговцы смертью скачать торрент
    Торговцы смертью смотреть онлайн
    Cкачать фильм Торговцы смертью бесплатно
    Торговцы смертью скачать торрент в хорошем качестве
    Торговцы смертью смотреть онлайн бесплатно в хорошем качестве


    Вы не можете начинать темы
    Вы не можете отвечать на сообщения
    Вы не можете редактировать свои сообщения
    Вы не можете удалять свои сообщения
    Вы не можете голосовать в опросах
    Вы не можете прикреплять файлы к сообщениям
    Вы можете скачивать файлы