Ссылка на приватное зеркало нашего сайта всего за 1$. Внимание количество ограничено!!!

2 сезон

iTunes

1 сезон

1

iTunes

iTunes

iTunes

1 сезон

RePack

30

ИГРА 18+

pack

ВАЖНО

!!Акция!!

Alien_RageХит недели

RePack

MK11
pack

Забери бонус

RePack

jed

!!Акция!!

Alien_Rage

RePack

fifa19

RePack

Assassins Creed: Odyssey

RePack

NEED FOR SPEED™ PAYBACK

4 сезон

9 сезон

Бесстыжие 9 сезон

Все сериалы

все сериалы на PB.wtf

RePack

FAR CRY 5
  

Вместе с Верой / Серии: 1-2 из 2 (Александр Хван) [2019, Мелодрама, SATRip] pb.wtf

Вместе с Верой через торрент pb.wtf

Размер: 1.27 GB | Добавлен: 1 год 9 мес. назад | Торрент скачан:82 раза
Скачать  

06-01-2019 16:11 Вместе с Верой Скачать торрент  

Вместе с ВеройГод выпуска: 2019
Страна: Россия
Жанр: Мелодрама
Продолжительность: ~ 00:48:00 серия
Субтитры: отсутствуют

Режиссер: Александр Хван



В ролях:

Юлия Кокрятская, Алексей Демидов, Алексей Комашко, Павел Клячин, Игорь Яцко, Алиса Гребенщикова, Дмитрий Вяткин, Мирра Иванова, Софья Литвиненко, Арсений Калашников, Сергей Брауде

Описание:

Что бы в жизни ни случилось, Оксана держит лицо, поэтому всем кажется, что у нее все в порядке. Никто не понимает, почему она ушла от мужа, в том числе и сам муж. Но есть у Оксаны одна слабость: дети. И надо же, чтобы именно о детях заговорила с ней странная женщина на парковке! О том, что они наспех розданы по семьям из детского дома, который сносят ради строительства нового объекта. Причем объект этот принадлежит фирме Оксаны! Так ничего толком и не успев объяснить, женщина попадает под колеса машины. И теперь Оксане приходится разбираться со всем – с женщиной, с ее приемной дочерью, с детьми, которые загадочно исчезли из снесенного детдома… А еще приходится обратиться за помощью к мужу, которого больно видеть.

Качество: SATRip
Формат: AVI

Видео: XviD, 1650 Кбит/с, 720x400
Аудио: MP3, 2 ch, 192 Кбит/с
скриншот  скриншот  скриншот  скриншот  

Общее
Полное имя : D:\Vmeste.s.Veroy.2018.XviD.SATRip.25Kuzmich\Vmeste.s.Veroy.(01.seriya.iz.02).XviD.SATRip.25Kuzmich.avi
Формат : AVI
Формат/Информация : Audio Video Interleave
Размер файла : 649 Мбайт
Продолжительность : 48 м. 59 с.
Общий поток : 1851 Кбит/сек
Программа кодирования : VirtualDubMod 1.5.10.3 (build 2550/release)
Библиотека кодирования : VirtualDubMod build 2550/release

Видео
Идентификатор : 0
Формат : MPEG-4 Visual
Профиль формата : Advanced Simple@L5
Параметр BVOP формата : 2
Параметр QPel формата : Нет
Параметр GMC формата : Без точки перехода
Параметр матрицы формата : Default (MPEG)
Режим смешивания : Сжатый битовый поток
Идентификатор кодека : XVID
Идентификатор кодека/Подсказка : XviD
Продолжительность : 48 м. 59 с.
Битрейт : 1650 Кбит/сек
Ширина : 720 пикселей
Высота : 400 пикселей
Соотношение сторон : 16:9
Частота кадров : 25,000 кадров/сек
Цветовое пространство : YUV
Субдискретизация насыщенности : 4:2:0
Битовая глубина : 8 бит
Тип развёртки : Прогрессивная
Метод сжатия : С потерями
Бит/(Пиксели*Кадры) : 0.229
Размер потока : 578 Мбайт (89%)
Библиотека кодирования : XviD 1.2.1 (UTC 2008-12-04)

Аудио
Идентификатор : 1
Формат : MPEG Audio
Версия формата : Version 1
Профиль формата : Layer 3
Режим : Joint stereo
Идентификатор кодека : 55
Идентификатор кодека/Подсказка : MP3
Продолжительность : 48 м. 59 с.
Вид битрейта : Постоянный
Битрейт : 192 Кбит/сек
Каналы : 2 канала
Частота : 48,0 КГц
Метод сжатия : С потерями
Размер потока : 67,3 Мбайт (10%)
Выравнивание : Соединение по промежуткам
Продолжительность промежутка : 40 мс. (1,00 видеокадр)
Время предзагрузки промежутка : 504 мс.
Библиотека кодирования : LAME3.99r
Настройки программы : -m j -V 4 -q 2 -lowpass 18.6 -b 192

pb.wtf



Скачать Вместе с Верой через торрент https://i106.fastpic.ru/big/2019/0106/3c/1e9d1b0715e83d690a2a778f356a2a3c.jpg Скачать фильм Вместе с Верой через торрент бесплантно в хорошем качестве Описание: Что бы в жизни ни случилось, Оксана держит лицо, поэтому всем кажется, что у нее все в порядке. Никто не понимает, почему она ... 10 10 6
Торрент: Зарегистрирован [2019-01-06 16:11] · скачан: 82 раз
Статус: √ проверено
Размер: 1.27 GB
Как cкачать? Как скачать Вместе с Верой через торрент | qTorrent

% Раздел Тема Автор DL S | L
Наши сериалы [ 1.3 GB ] Вместе с Верой / Серии: 1-2 из 2 [2019 SATRip-AVC] aleksan55 Скачать
1 | 0

28-11-2019 20:33  

Отключить всю рекламу на сайте

    Дорогой пользователь! Огромная просьба, поблагодарите релизера, оцените раздачу и оставьте свои комментарий, если Вы скачали Вместе с Верой через торрент бесплатно! Внесите свою лепту в развитие PiratBit!
    Комментировать посты могут только пользователи прошедшие не сложную регистрацию
    Показать сообщения:    

    Вместе с Верой через торрент
    Скачать бесплатно Вместе с Верой
    Вместе с Верой скачать торрент
    Вместе с Верой смотреть онлайн
    Cкачать фильм Вместе с Верой бесплатно
    Вместе с Верой скачать торрент в хорошем качестве
    Вместе с Верой смотреть онлайн бесплатно в хорошем качестве


    Вы не можете начинать темы
    Вы не можете отвечать на сообщения
    Вы не можете редактировать свои сообщения
    Вы не можете удалять свои сообщения
    Вы не можете голосовать в опросах
    Вы не можете прикреплять файлы к сообщениям
    Вы можете скачивать файлы