Ссылка на приватное зеркало всего за 1$. Внимание количество ограничено!!!

OK

1+1

iTunes

мы

OK

1

WEB-DLRip

Джокер

Пифагор

Ведьмак / The Witcher сериал

iTunes

ПШазам

ОК

Оно 2

iTunes

30
pack

Вам бонус

ВАЖНО

!!Акция!!

Alien_RageХит недели

RePack

Resident Evil 21

ИГРА 18+

pack

RePack

jed

RePack

fifa19

RePack

Assassins Creed: Odyssey

RePack

NEED FOR SPEED™ PAYBACK

4 сезон

9 сезон

Бесстыжие 9 сезон

Все сериалы

все сериалы на PB.wtf

RePack

FAR CRY 5
  

Приспешники / Henchmen (Адам Вуд) [2018, Мультфильм, комедия, WEB-DL 720p] MVO ["Синема УС"] pb.wtf

Приспешники через торрент pb.wtf

Размер: 3.44 GB | Добавлен: 1 год назад | Торрент скачан:78 раз
Скачать  

06-01-2019 18:07 Приспешники Скачать торрент  

Приспешники / HenchmenГод выпуска: 2018
Страна: Канада
Жанр: Мультфильм, комедия
Продолжительность: 01:31:43
Перевод: Любительский (многоголосый) | "Синема УС"
Субтитры: отсутствуют

Режиссер: Адам Вуд

rating

В ролях:

Нэйтан Филлион, Розарио Доусон, Джеймс Марсден, Альфред Молина, Бобкэт Голдтуэйт, Джейн Краковски, Томас Миддлдитч, Крэйг Робинсон, Роб Риггл, Уилл Сасс

Описание:

Когда мир оказывается под угрозой захвата злодеем, подросток-сирота и его наставник готовы на всё, чтобы помешать исполнению его планов.

Качество: WEB-DL 720p
Формат: MKV

Видео: h.264,4 985 kb/s, 1280x534
Аудио#1: Русский, (AC3, 2 ch, 384 Кбит/с)
скриншот  скриншот  скриншот  

Общее
Уникальный идентификатор : 181757913185580668734388684816529806854 (0x88BD4CFED398A4AC87654BE78910D606)
Полное имя : D:\Henchmen.2018.P.WEB-DL.72Op_KOSHARA.mkv
Формат : Matroska
Версия формата : Version 2
Размер файла : 3,44 Гбайт
Продолжительность : 1 ч. 31 м.
Режим общего битрейта : Переменный
Общий поток : 5371 Кбит/сек
Дата кодирования : UTC 2019-01-02 18:57:07
Программа кодирования : mkvmerge v8.3.0 ('Over the Horizon') 64bit
Библиотека кодирования : libebml v1.3.1 + libmatroska v1.4.2

Видео
Идентификатор : 1
Формат : AVC
Формат/Информация : Advanced Video Codec
Профиль формата : High@L4.1
Параметр CABAC формата : Да
Параметр RefFrames формата : 4 кадра
Идентификатор кодека : V_MPEG4/ISO/AVC
Продолжительность : 1 ч. 31 м.
Вид битрейта : Переменный
Битрейт : 4985 Кбит/сек
Максимальный битрейт : 5500 Кбит/сек
Ширина : 1280 пикселей
Высота : 534 пикселя
Соотношение сторон : 2,40:1
Режим частоты кадров : Постоянный
Частота кадров : 23,976 (24000/1001) кадра/сек
Стандарт вещания : Component
Цветовое пространство : YUV
Субдискретизация насыщенности : 4:2:0
Битовая глубина : 8 бит
Тип развёртки : Прогрессивная
Бит/(Пиксели*Кадры) : 0.298
Размер потока : 3,13 Гбайт (91%)
Default : Да
Forced : Нет
Цветовой диапазон : Limited
Основные цвета : BT.709
Характеристики трансфера : BT.709
Коэффициенты матрицы : BT.709

Аудио
Идентификатор : 2
Формат : AC-3
Формат/Информация : Audio Coding 3
Расширение режима : CM (complete main)
Параметр Endianness формата : Big
Идентификатор кодека : A_AC3
Продолжительность : 1 ч. 31 м.
Вид битрейта : Постоянный
Битрейт : 384 Кбит/сек
Каналы : 2 канала
Расположение каналов : Front: L R
Частота : 48,0 КГц
Частота кадров : 31,250 кадров/сек (1536 spf)
Метод сжатия : С потерями
Размер потока : 252 Мбайт (7%)
Default : Да
Forced : Нет

pb.wtf



Скачать Приспешники через торрент https://d.radikal.ru/d27/1901/30/04ba5930888a.jpg Скачать фильм Приспешники через торрент бесплантно в хорошем качестве Описание: Когда мир оказывается под угрозой захвата злодеем, подросток-сирота и его наставник готовы на всё, чтобы помешать исполнению его ... 10 10 2
Торрент: Зарегистрирован [2019-01-06 18:07] · скачан: 78 раз
Статус: T временная
Размер: 3.44 GB
Как cкачать? Как скачать Приспешники через торрент | qTorrent

% Раздел Тема Автор DL S | L
T Фильмы (мультфильмы) cо спонсором показа (Новинки AVI/MKV) [ 1.37 GB ] Приспешники / Henchmen [2018 Мультфильм WEB-DLRip] MVO ["Синема УС"] bober100 Скачать
2 | 0

28-11-2019 20:33  

Отключить всю рекламу на сайте

    Дорогой пользователь! Огромная просьба, поблагодарите релизера, оцените раздачу и оставьте свои комментарий, если Вы скачали Приспешники через торрент бесплатно! Внесите свою лепту в развитие PiratBit!
    Комментировать посты могут только пользователи прошедшие не сложную регистрацию
    Показать сообщения:    

    Приспешники через торрент
    Скачать бесплатно Приспешники
    Приспешники скачать торрент
    Приспешники смотреть онлайн
    Cкачать фильм Приспешники бесплатно
    Приспешники скачать торрент в хорошем качестве
    Приспешники смотреть онлайн бесплатно в хорошем качестве


    Вы не можете начинать темы
    Вы не можете отвечать на сообщения
    Вы не можете редактировать свои сообщения
    Вы не можете удалять свои сообщения
    Вы не можете голосовать в опросах
    Вы не можете прикреплять файлы к сообщениям
    Вы можете скачивать файлы