Ссылка на приватное зеркало всего за 1$. Внимание количество ограничено!!!

OK

1+1

iTunes

мы

OK

1

WEB-DLRip

Джокер

Пифагор

Ведьмак / The Witcher сериал

iTunes

ПШазам

ОК

Оно 2

iTunes

30
pack

Вам бонус

ВАЖНО

!!Акция!!

Alien_RageХит недели

RePack

Resident Evil 21

ИГРА 18+

pack

RePack

jed

RePack

fifa19

RePack

Assassins Creed: Odyssey

RePack

NEED FOR SPEED™ PAYBACK

4 сезон

9 сезон

Бесстыжие 9 сезон

Все сериалы

все сериалы на PB.wtf

RePack

FAR CRY 5
  

Демонолог / Экзорцист / The Demonologist (Дж.М. Стелли) [2018, ужасы, WEB-DL 720p] MVO ["Синема УС"] pb.wtf

Демонолог через торрент pb.wtf

Размер: 3.65 GB | Добавлен: 1 год назад | Торрент скачан:62 раза
Скачать  

06-01-2019 18:35 Демонолог Скачать торрент  

Демонолог / Экзорцист / The Demonologist Год выпуска: 2018
Страна: США
Жанр: ужасы
Продолжительность: 01:42:48
Перевод: Любительский (многоголосый) | "Синема УС"
Субтитры: отсутствуют

Режиссер: Дж.М. Стелли

rating

В ролях:

Брайан Краузе, Джаред Банкенс, Лара Грайс, Томас Мерфи, Кейт Туманова, Джефф Пирсон, Ронда Дентс, Manon Pages, Скотт Аллен Перри, Keegan Macy

Описание:

Детектив, расследующий серию убийств, выходит на группу людей, желающих воскресить короля тьмы.

Качество: WEB-DL 720p
Формат: MKV

Видео: h.264, 4594 Кбит/с, 1280x720
Аудио#1: Русский, (AC3, 2 ch, 384 Кбит/с)
скриншот  скриншот  скриншот  

Общее
Уникальный идентификатор : 216400721251620259144508408373962116287 (0xA2CD434DB6683D5AB004600EFAF88CBF)
Полное имя : D:\The.Demonologist.2018.P.WEB-DL.72Op_KOSHARA.mkv
Формат : Matroska
Версия формата : Version 2
Размер файла : 3,65 Гбайт
Продолжительность : 1 ч. 42 м.
Режим общего битрейта : Переменный
Общий поток : 5079 Кбит/сек
Дата кодирования : UTC 2019-01-03 19:38:28
Программа кодирования : mkvmerge v8.3.0 ('Over the Horizon') 64bit
Библиотека кодирования : libebml v1.3.1 + libmatroska v1.4.2

Видео
Идентификатор : 1
Формат : AVC
Формат/Информация : Advanced Video Codec
Профиль формата : High@L4.1
Параметр CABAC формата : Да
Параметр RefFrames формата : 4 кадра
Идентификатор кодека : V_MPEG4/ISO/AVC
Продолжительность : 1 ч. 42 м.
Вид битрейта : Переменный
Битрейт : 4594 Кбит/сек
Максимальный битрейт : 5500 Кбит/сек
Ширина : 1280 пикселей
Высота : 720 пикселей
Соотношение сторон : 16:9
Режим частоты кадров : Постоянный
Частота кадров : 23,976 (24000/1001) кадра/сек
Стандарт вещания : Component
Цветовое пространство : YUV
Субдискретизация насыщенности : 4:2:0
Битовая глубина : 8 бит
Тип развёртки : Прогрессивная
Бит/(Пиксели*Кадры) : 0.208
Размер потока : 3,30 Гбайт (90%)
Default : Да
Forced : Нет
Цветовой диапазон : Limited
Основные цвета : BT.709
Характеристики трансфера : BT.709
Коэффициенты матрицы : BT.709

Аудио
Идентификатор : 2
Формат : AC-3
Формат/Информация : Audio Coding 3
Расширение режима : CM (complete main)
Параметр Endianness формата : Big
Идентификатор кодека : A_AC3
Продолжительность : 1 ч. 42 м.
Вид битрейта : Постоянный
Битрейт : 384 Кбит/сек
Каналы : 2 канала
Расположение каналов : Front: L R
Частота : 48,0 КГц
Частота кадров : 31,250 кадров/сек (1536 spf)
Метод сжатия : С потерями
Размер потока : 282 Мбайт (8%)
Default : Да
Forced : Нет

pb.wtf



Скачать Демонолог через торрент https://b.radikal.ru/b42/1901/b4/9de223464457.jpg Скачать фильм Демонолог через торрент бесплантно в хорошем качестве Описание: Детектив, расследующий серию убийств, выходит на группу людей, желающих воскресить короля ... 6 10 5
Info! Серебряная раздача, засчитывается только 50% скачанного.
Торрент: Зарегистрирован [2019-01-06 18:35] · скачан: 62 раз
Статус: T временная
Размер: 3.65 GB
Как cкачать? Как скачать Демонолог через торрент | qTorrent

% Раздел Тема Автор DL S | L
T Фильмы (WEB-DL 720p, 1080p) [ 4.1 GB ] Демонолог / Экзорцист / The Demonologist [2018 WEB-DL 1080p] MVO [HDRezka Studio] - ExKinoRay Enigma2010 Скачать
1 | 0
T Фильмы 2018 [DVDrip, WEB-DLRip, HDrip] (DUB, MVO) [ 1.45 GB ] Демонолог / Экзорцист / The Demonologist [2018 WEB-DLRip-AVC] MVO [HDRezka Studio] - ExKinoRay Enigma2010 Скачать
1 | 0
T Фильмы 2018 [DVDrip, WEB-DLRip, HDrip] (DUB, MVO) [ 1.45 GB ] Демонолог / Экзорцист / The Demonologist [2018 WEB-DLRip] MVO [HDRezka Studio] - ExKinoRay Enigma2010 Скачать
1 | 0

28-11-2019 20:33  

Отключить всю рекламу на сайте

07-01-2019 13:52 Демонолог Скачать торрент  

и правда ведь люди ругаются.что ни качни от- синема ус-все жуткая дрянь.pb.wtf



    Дорогой пользователь! Огромная просьба, поблагодарите релизера, оцените раздачу и оставьте свои комментарий, если Вы скачали Демонолог через торрент бесплатно! Внесите свою лепту в развитие PiratBit!
    Комментировать посты могут только пользователи прошедшие не сложную регистрацию
    Показать сообщения:    

    Демонолог через торрент
    Скачать бесплатно Демонолог
    Демонолог скачать торрент
    Демонолог смотреть онлайн
    Cкачать фильм Демонолог бесплатно
    Демонолог скачать торрент в хорошем качестве
    Демонолог смотреть онлайн бесплатно в хорошем качестве


    Вы не можете начинать темы
    Вы не можете отвечать на сообщения
    Вы не можете редактировать свои сообщения
    Вы не можете удалять свои сообщения
    Вы не можете голосовать в опросах
    Вы не можете прикреплять файлы к сообщениям
    Вы можете скачивать файлы