Ссылка на приватное зеркало нашего сайта всего за 1$. Внимание количество ограничено!!!

2 сезон

iTunes

1 сезон

1

2 сезон

2 сезон

iTunes

1 сезон

RePack

30

Ultimate

ВАЖНО

ИГРА 18+

pack

RePack

MK11
pack

Забери бонус

RePack

jed

!!Акция!!

Alien_Rage

RePack

fifa19

RePack

Assassins Creed: Odyssey

RePack

NEED FOR SPEED™ PAYBACK

4 сезон

9 сезон

Бесстыжие 9 сезон

Все сериалы

все сериалы на PB.wtf

RePack

FAR CRY 5
  

Аромат / Perfume / Parfum / Сезон: 1 / Серии: 1-6 из 6 (Филипп Кадельбах / Philip Kadelbach) [2018, Триллер, драма, WEB-DL 1080p] [MVO] (FocusStudio) pb.wtf

Аромат через торрент pb.wtf

Размер: 17.87 GB | Добавлен: 1 год 10 мес. назад | Торрент скачан:15 раз
Скачать  

06-01-2019 22:16 Аромат Скачать торрент  

Аромат | Perfume | Parfum
Год выпуска: 2018
Страна: Германия
Жанр: Триллер, драма
Продолжительность: ~ 01:00:00
Перевод: Профессиональный (многоголосый закадровый) | FocusStudio
Режиссёр: Филипп Кадельбах / Philip Kadelbach
В ролях: Фредерике Бехт, Наталья Белитски, Аугуст Диль, Кен Дукен, Кристиан Фридель, Марк Хоземанн, Юрген Маурер, Тристан Пюттер, Вотан Вильке Мёринг, Карлотта фон Фалькенхайн
Описание: Шестерых друзей по школе-интернату объединяет уникальная способность очень тонко чувствовать запахи. Они прибегают к убийству людей для создания идеального аромата, который смог бы влюбить в себя всех вокруг. Но группой начинает интересоваться полиция, и их общее дело оказывается под угрозой.
скриншот  

Качество: WEB-DL 1080p
Формат: MKV
Видео: MPEG-4 AVC, 6000 Кбит/с, 1920х1080
Аудио Rus: AC3, 48 kHz, 6 ch, 640 Кбит/сек | FocusStudio
Аудио Deu: AC3, 48 kHz, 6 ch, 640 Кбит/сек
General
Unique ID : 117706711692431646450879101543615547150 (0x588D7CF22E343BF222740D7F313BC70E)
Complete name : F:\Parfum.S01.WEB-DL.1080p.FocusX\Parfum.S01E01.WEB-DL.1080p.FocusX.mkv
Format : Matroska
Format version : Version 4 / Version 2
File size : 2.68 GiB
Duration : 53 min 12 s
Overall bit rate mode : Variable
Overall bit rate : 7 224 kb/s
Movie name : Perfume 1x01 @ FocusStudio
Encoded date : UTC 2019-01-06 13:34:45
Writing application : mkvmerge v29.0.0 ('Like It Or Not') 64-bit
Writing library : libebml v1.3.6 + libmatroska v1.4.9

Video
ID : 1
Format : AVC
Format/Info : Advanced Video Codec
Format profile : Main@L4
Format settings : CABAC / 3 Ref Frames
Format settings, CABAC : Yes
Format settings, RefFrames : 3 frames
Codec ID : V_MPEG4/ISO/AVC
Duration : 53 min 12 s
Bit rate mode : Variable
Bit rate : 5 800 kb/s
Nominal bit rate : 6 190 kb/s
Maximum bit rate : 9 285 kb/s
Width : 1 920 pixels
Height : 1 080 pixels
Display aspect ratio : 16:9
Frame rate mode : Constant
Frame rate : 25.000 FPS
Color space : YUV
Chroma subsampling : 4:2:0
Bit depth : 8 bits
Scan type : Progressive
Bits/(Pixel*Frame) : 0.112
Stream size : 2.16 GiB (80%)
Writing library : x264 core 148 r2715 7e75228
Encoding settings : cabac=1 / ref=3 / deblock=1:0:0 / analyse=0x1:0x111 / me=umh / subme=10 / psy=1 / psy_rd=1.00:0.00 / mixed_ref=1 / me_range=24 / chroma_me=1 / trellis=2 / 8x8dct=0 / cqm=0 / deadzone=21,11 / fast_pskip=1 / chroma_qp_offset=-2 / threads=8 / lookahead_threads=1 / sliced_threads=0 / nr=0 / decimate=1 / interlaced=0 / bluray_compat=0 / stitchable=1 / constrained_intra=0 / bframes=2 / b_pyramid=0 / b_adapt=2 / b_bias=0 / direct=3 / weightb=1 / open_gop=0 / weightp=2 / keyint=50 / keyint_min=26 / scenecut=0 / intra_refresh=0 / rc_lookahead=50 / rc=2pass / mbtree=1 / bitrate=6190 / ratetol=1.0 / qcomp=0.50 / qpmin=6 / qpmax=51 / qpstep=4 / cplxblur=20.0 / qblur=0.5 / vbv_maxrate=9285 / vbv_bufsize=12380 / nal_hrd=vbr / filler=0 / ip_ratio=1.40 / aq=1:1.00
Default : Yes
Forced : No

Audio #1
ID : 2
Format : AC-3
Format/Info : Audio Coding 3
Format settings, Endianness : Big
Codec ID : A_AC3
Duration : 53 min 12 s
Bit rate mode : Constant
Bit rate : 640 kb/s
Channel(s) : 6 channels
Channel positions : Front: L C R, Side: L R, LFE
Sampling rate : 48.0 kHz
Frame rate : 31.250 FPS (1536 SPF)
Bit depth : 16 bits
Compression mode : Lossy
Stream size : 244 MiB (9%)
Title : MVO FocusX
Language : Russian
Service kind : Complete Main
Default : Yes
Forced : No

Audio #2
ID : 3
Format : AC-3
Format/Info : Audio Coding 3
Format settings, Endianness : Big
Codec ID : A_AC3
Duration : 53 min 12 s
Bit rate mode : Constant
Bit rate : 640 kb/s
Channel(s) : 6 channels
Channel positions : Front: L C R, Side: L R, LFE
Sampling rate : 48.0 kHz
Frame rate : 31.250 FPS (1536 SPF)
Bit depth : 16 bits
Compression mode : Lossy
Stream size : 244 MiB (9%)
Language : German
Service kind : Complete Main
Default : No
Forced : No

скриншот  скриншот  скриншот  
pb.wtf



Скачать Аромат через торрент https://i107.fastpic.ru/big/2018/1230/b7/259e675c25635b2ed98ff0919e9d2ab7.jpg Скачать фильм Аромат через торрент бесплантно в хорошем качестве Описание: Шестерых друзей по школе-интернату объединяет уникальная способность очень тонко чувствовать запахи. Они прибегают к убийству ... 5 10 1
Торрент: Зарегистрирован [2019-01-06 22:16] · скачан: 15 раз
Статус: √ проверено
Размер: 17.87 GB
Как cкачать? Как скачать Аромат через торрент | qTorrent

% Раздел Тема Автор DL S | L
Зарубежные сериалы [ 4.35 GB ] Аромат / Perfume / Parfum / Сезон: 1 / Серии: 1-6 из 6 [2018 WEB-DLRip] [MVO] killermax2013 Скачать
2 | 0

28-11-2019 20:33  

Отключить всю рекламу на сайте

    Дорогой пользователь! Огромная просьба, поблагодарите релизера, оцените раздачу и оставьте свои комментарий, если Вы скачали Аромат через торрент бесплатно! Внесите свою лепту в развитие PiratBit!
    Комментировать посты могут только пользователи прошедшие не сложную регистрацию
    Показать сообщения:    

    Аромат через торрент
    Скачать бесплатно Аромат
    Аромат скачать торрент
    Аромат смотреть онлайн
    Cкачать фильм Аромат бесплатно
    Аромат скачать торрент в хорошем качестве
    Аромат смотреть онлайн бесплатно в хорошем качестве


    Вы не можете начинать темы
    Вы не можете отвечать на сообщения
    Вы не можете редактировать свои сообщения
    Вы не можете удалять свои сообщения
    Вы не можете голосовать в опросах
    Вы не можете прикреплять файлы к сообщениям
    Вы можете скачивать файлы