Ссылка на приватное зеркало всего за 1$. Внимание количество ограничено!!!

iTunes

1+1

iTunes

мы

WEB-DL

1

iTunes

Чернобыль

iTunes

Ральф против интернета

Лицензия

ПШазам

Лицензия

Оно 2

Лицензия

30
pack

Вам бонус

ВАЖНО

!!Акция!!

Alien_RageХит недели

RePack

Resident Evil 21

ИГРА 18+

pack

RePack

jed

!!Акция!!

Alien_Rage

RePack

fifa19

RePack

Assassins Creed: Odyssey

RePack

NEED FOR SPEED™ PAYBACK

3 сезон

9 сезон

Бесстыжие 9 сезон

Все сериалы

все сериалы на PB.wtf

RePack

FAR CRY 5
Ребята, катастрофически не хватает 1900р. для оплаты серверов за Октябрь (всвязи с блокировками трафик упал в 3 раза), 1-2р., выручайте.
  

Аксель / A.X.L. (Оливер Дэйли) [2018, фантастика, приключения, семейный, BDRip-AVC] Дубляж - [Лицензия / iTunes] - ExKinoRay pb.wtf

Аксель через торрент pb.wtf

Раздают: 3 [ 0 KB/s ]
Размер: 1.4 GB | Добавлен: 11 мес. назад | Торрент скачан:760 раз
Скачать  

07-01-2019 04:59 Аксель Скачать торрент  

Информация о фильме
Название: Аксель
Оригинальное название: A-X-L
Год выпуска: 2018
Жанр: Фантастика, приключения, семейный
Режиссер: Оливер Дэйли
В ролях: Алекс Нюстадтер, Томас Джейн, Бекки Джи, Тед МакГинли, Лу Тейлор Пуччи, Амин Наземзадех, Нико Гуардадо, Эрик Этебари, Алекс МакНиколл, Дориан Кинги, Патрисия де Леон, Стэйси Арвен Рааб, Джонатан Кэмп, Сэм Аптон, Мадлен Бертани, Мелисса Вердуго, Эшли Гибсон, Доминик Веддер, Эндрю Ортенберг

Описание:
Юный мотоциклист Майлз случайно находит новую военную разработку - гигантскую собаку-робота по имени Аксель. Обладая искусственным интеллектом следующего поколения, но с огромным сердцем верного пса, Аксель быстро становится лучшим другом парня. Но военные не намерены просто так отказаться от металлического зверя, который превзошел в развитии их самые смелые ожидания. История настоящей дружбы и преданности вышла на новый технологический уровень, но вечные законы жизни остались прежними: ты всегда в ответе за тех, кого приручил.

rating

Страна: США
Студия: Global Road Entertainment, Lakeshore Entertainment, Phantom Four Films
Продолжительность: 01:36:38
Перевод: Дублированный | iTunes
Субтитры: Английские

Формат: MKV
Качество: BDRip-AVC
Видео: MPEG-4 AVC, 720x300 (2.40:1), 23.976 fps, 1652 Kbps, 0.319 bit/pixel
Звук:
Аудио : 48 kHz, AC3, 5.1, 384 Kbps | RUS |
General
Unique ID : 240332090116819926593709957586688766610 (0xB4CE46E29C848E2C96BA9AB198917292)
Complete name : D:\A-X-L.2018.iTunes.BDRip.AVC.ExKinoRay.mkv
Format : Matroska
Format version : Version 2
File size : 1.40 GiB
Duration : 1 h 38 min
Overall bit rate : 2 036 kb/s
Movie name : A-X-L (2018) from ExKinoRay
Encoded date : UTC 2019-01-07 03:45:43
Writing application : mkvmerge v5.6.0 ('Kenya Kane') built on May 27 2012 16:44:04
Writing library : libebml v1.2.3 + libmatroska v1.3.0
Cover : Yes
Attachments : cover.jpg

Video
ID : 1
Format : AVC
Format/Info : Advanced Video Codec
Format profile : High@L4.1
Format settings, CABAC : Yes
Format settings, ReFrames : 12 frames
Codec ID : V_MPEG4/ISO/AVC
Duration : 1 h 38 min
Bit rate : 1 652 kb/s
Width : 720 pixels
Height : 300 pixels
Display aspect ratio : 2.40:1
Frame rate mode : Constant
Frame rate : 23.976 (24000/1001) FPS
Color space : YUV
Chroma subsampling : 4:2:0
Bit depth : 8 bits
Scan type : Progressive
Bits/(Pixel*Frame) : 0.319
Stream size : 1.11 GiB (79%)
Title : Enigma
Writing library : x264 core 152 r2851 ba24899
Encoding settings : cabac=1 / ref=12 / deblock=1:-2:-2 / analyse=0x3:0x113 / me=umh / subme=10 / psy=1 / psy_rd=1.00:0.04 / mixed_ref=1 / me_range=32 / chroma_me=1 / trellis=2 / 8x8dct=1 / cqm=0 / deadzone=21,11 / fast_pskip=0 / chroma_qp_offset=-3 / threads=9 / lookahead_threads=1 / sliced_threads=0 / nr=0 / decimate=0 / interlaced=0 / bluray_compat=0 / constrained_intra=0 / bframes=9 / b_pyramid=2 / b_adapt=2 / b_bias=0 / direct=3 / weightb=1 / open_gop=0 / weightp=2 / keyint=240 / keyint_min=23 / scenecut=40 / intra_refresh=0 / rc=2pass / mbtree=0 / bitrate=1652 / ratetol=1.0 / qcomp=0.60 / qpmin=0 / qpmax=51 / qpstep=4 / cplxblur=20.0 / qblur=0.5 / ip_ratio=1.30 / pb_ratio=1.20 / aq=3:0.80
Default : Yes
Forced : No
Color range : Limited
Color primaries : BT.709
Transfer characteristics : BT.709
Matrix coefficients : BT.709

Audio
ID : 2
Format : AC-3
Format/Info : Audio Coding 3
Mode extension : CM (complete main)
Format settings, Endianness : Big
Codec ID : A_AC3
Duration : 1 h 38 min
Bit rate mode : Constant
Bit rate : 384 kb/s
Channel(s) : 6 channels
Channel positions : Front: L C R, Side: L R, LFE
Sampling rate : 48.0 kHz
Frame rate : 31.250 FPS (1536 spf)
Compression mode : Lossy
Stream size : 271 MiB (19%)
Title : iTunes
Language : Russian
Default : Yes
Forced : No

Text #1
ID : 3
Format : UTF-8
Codec ID : S_TEXT/UTF8
Codec ID/Info : UTF-8 Plain Text
Title : Full
Language : English
Default : No
Forced : No

Text #2
ID : 4
Format : UTF-8
Codec ID : S_TEXT/UTF8
Codec ID/Info : UTF-8 Plain Text
Title : SDH
Language : English
Default : No
Forced : No

Menu
00:00:00.000 : en:Chapter 01
00:05:03.886 : en:Chapter 02
00:10:06.063 : en:Chapter 03
00:16:35.494 : en:Chapter 04
00:19:37.926 : en:Chapter 05
00:23:11.848 : en:Chapter 06
00:30:32.288 : en:Chapter 07
00:36:25.266 : en:Chapter 08
00:44:47.643 : en:Chapter 09
00:49:35.263 : en:Chapter 10
00:56:14.788 : en:Chapter 11
01:01:15.421 : en:Chapter 12
01:09:45.139 : en:Chapter 13
01:14:41.768 : en:Chapter 14
01:18:30.414 : en:Chapter 15
01:25:27.080 : en:Chapter 16
Релиз от:

Автор релиза: pb.wtf



Скачать Аксель через торрент https://d.radikal.ru/d38/1812/e4/ef4bc32b7163.png Скачать фильм Аксель через торрент бесплантно в хорошем качестве Описание: Юный мотоциклист Майлз случайно находит новую военную разработку - гигантскую собаку-робота по имени Аксель. Обладая ... 10 10 20
Info! Золотая раздача, скачанное не засчитывается.
Торрент: Зарегистрирован [2019-01-07 04:59] · скачан: 760 раз
Статус: √ проверено
Размер: 1.4 GB
Как cкачать? Как скачать Аксель через торрент | qTorrent

28-11-2019 20:33  

Отключить всю рекламу на сайте

07-01-2019 05:29 Аксель Скачать торрент  

Спасибо pb.wtf



08-01-2019 13:10 Аксель Скачать торрент  

стремота еще та! На бензине блин работает!!! Просто атас! Супер-пупер продвинутый робот, как минимум на литиевой батарейке должен работать (хотя бы от Xiaomi взяли бы) не говоря уже о энергии выделенной из черной материи! (фантастика же) Писец одним словом.pb.wtf



08-01-2019 16:06 Аксель Скачать торрент  

meridianov писал(а):

стремота еще та! На бензине блин работает!!! Просто атас! Супер-пупер продвинутый робот, как минимум на литиевой батарейке должен работать (хотя бы от Xiaomi взяли бы) не говоря уже о энергии выделенной из черной материи! (фантастика же) Писец одним словом.

pb.wtf



08-01-2019 17:06 Аксель Скачать торрент  


зря потратили времяpb.wtf



11-01-2019 11:44 Аксель Скачать торрент  

Это даже не бред, снимали школьники - имбецилы для своих друзей.
Как говорили Джей и его молчаливый друг: Отстой пи..орский..pb.wtf



    Дорогой пользователь! Огромная просьба, поблагодарите релизера, оцените раздачу и оставьте свои комментарий, если Вы скачали Аксель через торрент бесплатно! Внесите свою лепту в развитие PiratBit!
    Комментировать посты могут только пользователи прошедшие не сложную регистрацию
    Показать сообщения:    

    Аксель через торрент
    Скачать бесплатно Аксель
    Аксель скачать торрент
    Аксель смотреть онлайн
    Cкачать фильм Аксель бесплатно
    Аксель скачать торрент в хорошем качестве
    Аксель смотреть онлайн бесплатно в хорошем качестве


    Вы не можете начинать темы
    Вы не можете отвечать на сообщения
    Вы не можете редактировать свои сообщения
    Вы не можете удалять свои сообщения
    Вы не можете голосовать в опросах
    Вы не можете прикреплять файлы к сообщениям
    Вы можете скачивать файлы